查看: 18|回复: 0

[动作片] 防暴女孩 Riot.Girls.2019.1080p.AMZN.WEBRip.DDP5.1.x264-NTG 4.83GB

[复制链接]

 成长值: 2570

级别:资源管理组

注册时间
2017-10-20
最后登录
2019-9-21
听众
1
收听
0
主题
83009
蓝光币
49621 枚
贡献
7337 点
发表于 2019-9-13 18:12:47 | 显示全部楼层 |阅读模式
防暴女孩 Riot.Girls.2019.1080p.AMZN.WEBRip.DDP5.1.x264-NTG 4.83GB-1.png

译  名 防暴女孩
片  名 Riot Girls
年  代 2018
产  地 加拿大 Canada
类  别 行动 / 科幻
语  言 英语
IMDb评分  6.1/10 from 42 users
IMDb链接  http://www.imdb.com/title/tt6049106
豆瓣评分 0/10 from 0 users
豆瓣链接 https://movie.douban.com/subject/30151967/
导  演 乔宛卡·默克维克 Jovanka Vuckovic
编  剧 Katherine Collins
主  演 麦迪森·伊瑟曼 Madison Iseman
       帕洛玛·克维亚特科夫斯基 Paloma Kwiatkowski
       Munro Chambers


简  介  

  A post-apocalyptic thriller set in an alternate 1995, where a mysterious disease has wiped out all of the adults. In this new age, two gangs are pitted against each other in a brutal war for territory, resources and survival.
  1. Video
  2. ID                                       : 1
  3. Format                                   : AVC
  4. Format/Info                              : Advanced Video Codec
  5. Format profile                           : <a href="/cdn-cgi/l/email-protection" class="__cf_email__" data-cfemail="b2fadbd5daf2fe86">[email protected]</a>
  6. Format settings                          : CABAC / 4 Ref Frames
  7. Format settings, CABAC                   : Yes
  8. Format settings, Reference frames        : 4 frames
  9. Codec ID                                 : V_MPEG4/ISO/AVC
  10. Duration                                 : 1 h 21 min
  11. Bit rate mode                            : Constant
  12. Bit rate                                 : 7 784 kb/s
  13. Nominal bit rate                         : 10 000 kb/s
  14. Width                                    : 1 920 pixels
  15. Height                                   : 800 pixels
  16. Display aspect ratio                     : 2.40:1
  17. Frame rate mode                          : Constant
  18. Frame rate                               : 23.976 (24000/1001) FPS
  19. Color space                              : YUV
  20. Chroma subsampling                       : 4:2:0
  21. Bit depth                                : 8 bits
  22. Scan type                                : Progressive
  23. Bits/(Pixel*Frame)                       : 0.211
  24. Stream size                              : 4.46 GiB (92%)
  25. Default                                  : Yes
  26. Forced                                   : No
  27. Color range                              : Limited
  28. Color primaries                          : BT.709
  29. Transfer characteristics                 : BT.709
  30. Matrix coefficients                      : BT.709

  31. Audio
  32. ID                                       : 2
  33. Format                                   : E-AC-3
  34. Format/Info                              : Enhanced AC-3
  35. Commercial name                          : Dolby Digital Plus
  36. Codec ID                                 : A_EAC3
  37. Duration                                 : 1 h 21 min
  38. Bit rate mode                            : Constant
  39. Bit rate                                 : 640 kb/s
  40. Channel(s)                               : 6 channels
  41. Channel layout                           : L R C LFE Ls Rs
  42. Sampling rate                            : 48.0 kHz
  43. Frame rate                               : 31.250 FPS (1536 SPF)
  44. Compression mode                         : Lossy
  45. Stream size                              : 375 MiB (8%)
  46. Language                                 : English
  47. Service kind                             : Complete Main
  48. Default                                  : Yes
  49. Forced                                   : No

  50. Text #1
  51. ID                                       : 3
  52. Format                                   : UTF-8
  53. Codec ID                                 : S_TEXT/UTF8
  54. Codec ID/Info                            : UTF-8 Plain Text
  55. Duration                                 : 1 h 19 min
  56. Bit rate                                 : 47 b/s
  57. Count of elements                        : 1021
  58. Stream size                              : 27.4 KiB (0%)
  59. Language                                 : English
  60. Default                                  : No
  61. Forced                                   : No

  62. Text #2
  63. ID                                       : 4
  64. Format                                   : UTF-8
  65. Codec ID                                 : S_TEXT/UTF8
  66. Codec ID/Info                            : UTF-8 Plain Text
  67. Duration                                 : 1 h 21 min
  68. Bit rate                                 : 49 b/s
  69. Count of elements                        : 1198
  70. Stream size                              : 29.7 KiB (0%)
  71. Title                                    : SDH
  72. Language                                 : English
  73. Default                                  : No
  74. Forced                                   : No
复制代码

防暴女孩 Riot.Girls.2019.1080p.AMZN.WEBRip.DDP5.1.x264-NTG 4.83GB-2.png 防暴女孩 Riot.Girls.2019.1080p.AMZN.WEBRip.DDP5.1.x264-NTG 4.83GB-3.png 防暴女孩 Riot.Girls.2019.1080p.AMZN.WEBRip.DDP5.1.x264-NTG 4.83GB-4.png






VIP会员免费任意下载本站所有资源!---点击开通
回复

使用道具 举报

懒得打字嘛,点击右侧快捷回复 【右侧内容,后台自定义】
您需要登录后才可以回帖 登录 | 立即注册

本版积分规则

QQ|Archiver|手机版|小黑屋| 中国高清网 |网站地图

GMT+8, 2019-9-21 14:41 , Processed in 0.415069 second(s), 39 queries .

Powered by HDchina X3.4

Copyright 2017-2019©HDchina.All right reserved

返回顶部 联系我们