查看: 22|回复: 0

[恐怖片] 堕落 Depraved.2019.1080p.WEB-DL.DD5.1.H264-FGT 3.96GB

[复制链接]

 成长值: 2570

级别:资源管理组

注册时间
2017-10-20
最后登录
2019-9-21
听众
1
收听
0
主题
83009
蓝光币
49621 枚
贡献
7337 点
发表于 2019-9-13 16:44:15 | 显示全部楼层 |阅读模式
出错 Depraved.2019.1080p.WEB-DL.DD5.1.H264-FGT 3.96GB-1.png

译  名 出错
片  名 Depraved
年  代 2019
产  地 美国
类  别 可骇
语  言 英语
上映日期 2019-03-20(美国)
IMDb评分  4.2/10 from 113 users
IMDb链接  http://www.imdb.com/title/tt7946216
豆瓣评分 0/10 from 0 users
豆瓣链接 https://movie.douban.com/subject/30135119/
片  长 114分钟
导  演 拉瑞·凡斯登 Larry Fessenden
编  剧 拉瑞·凡斯登 Larry Fessenden
主  演 大卫·卡尔 David Call
       乔舒华·莱纳德 Joshua Leonard
       亚历克斯·布鲁 Alex Breaux
       Ana Kayne
       玛丽亚·迪齐亚 Maria Dizzia
       克洛伊·莱文 Chloe Levine
       欧文·坎贝尔 Owen Campbell
       艾狄森·蒂姆林 Addison Timlin
       Chris O'Connor
       爱丽丝·巴雷特 Alice Barrett
       Andrew Lasky
       Jack Fessenden
       James Tam
       Zilong Zee
       Noah Le Gros
       斯图米·玛雅 Stormi Maya
       拉瑞·凡斯登 Larry Fessenden
       迈克尔·麦迪罗斯 Michael Medeiros


标  签 可骇 | 科幻 | 电影 | 2020 | 典范 | 美国电影 | 改编 | Larry_Fessenden

简  介  

  拉瑞·凡斯登将执导按照玛丽·雪莱的名著《弗兰肯斯坦》改编的自力可骇片[出错](Depraved,暂译),与此同时影片先导海报率先曝光。今朝卡司为大卫·卡尔、乔舒华·莱纳德以及亚历克斯·布鲁。片中亚历克斯·布鲁饰演怪物。建造公司Glass Eye Pix、Forager将打造该片。本片2月将在纽约展开建造。
  1. Video
  2. ID                                       : 1
  3. Format                                   : AVC
  4. Format/Info                              : Advanced Video Codec
  5. Format profile                           : <a href="/cdn-cgi/l/email-protection" class="__cf_email__" data-cfemail="eca4858b84aca0d8">[email protected]</a>
  6. Format settings                          : CABAC / 5 Ref Frames
  7. Format settings, CABAC                   : Yes
  8. Format settings, Reference frames        : 5 frames
  9. Codec ID                                 : V_MPEG4/ISO/AVC
  10. Duration                                 : 1 h 54 min
  11. Bit rate                                 : 4 579 kb/s
  12. Width                                    : 1 920 pixels
  13. Height                                   : 808 pixels
  14. Display aspect ratio                     : 2.40:1
  15. Frame rate mode                          : Constant
  16. Frame rate                               : 23.976 FPS
  17. Color space                              : YUV
  18. Chroma subsampling                       : 4:2:0
  19. Bit depth                                : 8 bits
  20. Scan type                                : Progressive
  21. Bits/(Pixel*Frame)                       : 0.123
  22. Stream size                              : 3.66 GiB (92%)
  23. Title                                    : Depraved.2019.1080p.WEB-DL.DD5.1.H264-FGT
  24. Language                                 : English
  25. Default                                  : Yes
  26. Forced                                   : No
  27. Color range                              : Limited
  28. Color primaries                          : BT.709
  29. Transfer characteristics                 : BT.709
  30. Matrix coefficients                      : BT.709

  31. Audio
  32. ID                                       : 2
  33. Format                                   : AC-3
  34. Format/Info                              : Audio Coding 3
  35. Commercial name                          : Dolby Digital
  36. Codec ID                                 : A_AC3
  37. Duration                                 : 1 h 54 min
  38. Bit rate mode                            : Constant
  39. Bit rate                                 : 384 kb/s
  40. Channel(s)                               : 6 channels
  41. Channel layout                           : L R C LFE Ls Rs
  42. Sampling rate                            : 48.0 kHz
  43. Frame rate                               : 31.250 FPS (1536 SPF)
  44. Bit depth                                : 16 bits
  45. Compression mode                         : Lossy
  46. Stream size                              : 314 MiB (8%)
  47. Title                                    : Depraved.2019.1080p.WEB-DL.DD5.1.H264-FGT
  48. Language                                 : English
  49. Service kind                             : Complete Main
  50. Default                                  : Yes
  51. Forced                                   : No

  52. Text
  53. ID                                       : 3
  54. Format                                   : UTF-8
  55. Codec ID                                 : S_TEXT/UTF8
  56. Codec ID/Info                            : UTF-8 Plain Text
  57. Duration                                 : 1 h 53 min
  58. Bit rate                                 : 83 b/s
  59. Count of elements                        : 1798
  60. Stream size                              : 69.9 KiB (0%)
  61. Language                                 : English
  62. Default                                  : Yes
  63. Forced                                   : No

  64. Menu
  65. 00:00:00.000                             : en:1
  66. 00:10:28.003                             : en:2
  67. 00:22:36.481                             : en:3
  68. 00:33:45.023                             : en:4
  69. 00:47:20.505                             : en:5
  70. 00:59:38.659                             : en:6
  71. 01:09:55.776                             : en:7
  72. 01:19:01.278                             : en:8
  73. 01:27:53.310                             : en:9
  74. 01:37:20.209                             : en:10
  75. 01:50:30.374                             : en:11
复制代码

出错 Depraved.2019.1080p.WEB-DL.DD5.1.H264-FGT 3.96GB-2.png 出错 Depraved.2019.1080p.WEB-DL.DD5.1.H264-FGT 3.96GB-3.png 出错 Depraved.2019.1080p.WEB-DL.DD5.1.H264-FGT 3.96GB-4.png






VIP会员免费任意下载本站所有资源!---点击开通
回复

使用道具 举报

懒得打字嘛,点击右侧快捷回复 【右侧内容,后台自定义】
您需要登录后才可以回帖 登录 | 立即注册

本版积分规则

QQ|Archiver|手机版|小黑屋| 中国高清网 |网站地图

GMT+8, 2019-9-21 14:48 , Processed in 0.422901 second(s), 39 queries .

Powered by HDchina X3.4

Copyright 2017-2019©HDchina.All right reserved

返回顶部 联系我们