查看: 14|回复: 0

[动作片] 防暴女孩 Riot.Girls.2019.1080p.WEB-DL.DD5.1.H264-FGT 2.83GB

[复制链接]

 成长值: 2570

级别:资源管理组

注册时间
2017-10-20
最后登录
2019-9-21
听众
1
收听
0
主题
83026
蓝光币
49779 枚
贡献
7354 点
发表于 2019-9-13 16:22:39 | 显示全部楼层 |阅读模式
防暴女孩 Riot.Girls.2019.1080p.WEB-DL.DD5.1.H264-FGT 2.83GB-1.png

译  名 防暴女孩
片  名 Riot Girls
年  代 2018
产  地 加拿大 Canada
类  别 行动 / 科幻
语  言 英语
IMDb评分  6.1/10 from 42 users
IMDb链接  http://www.imdb.com/title/tt6049106
豆瓣评分 0/10 from 0 users
豆瓣链接 https://movie.douban.com/subject/30151967/
导  演 乔宛卡·默克维克 Jovanka Vuckovic
编  剧 Katherine Collins
主  演 麦迪森·伊瑟曼 Madison Iseman
       帕洛玛·克维亚特科夫斯基 Paloma Kwiatkowski
       Munro Chambers


简  介  

  A post-apocalyptic thriller set in an alternate 1995, where a mysterious disease has wiped out all of the adults. In this new age, two gangs are pitted against each other in a brutal war for territory, resources and survival.
  1. Video
  2. ID                                       : 1
  3. Format                                   : AVC
  4. Format/Info                              : Advanced Video Codec
  5. Format profile                           : <a href="/cdn-cgi/l/email-protection" class="__cf_email__" data-cfemail="5e163739361e126a">[email protected]</a>
  6. Format settings                          : CABAC / 5 Ref Frames
  7. Format settings, CABAC                   : Yes
  8. Format settings, Reference frames        : 5 frames
  9. Codec ID                                 : V_MPEG4/ISO/AVC
  10. Duration                                 : 1 h 21 min
  11. Bit rate                                 : 4 553 kb/s
  12. Width                                    : 1 912 pixels
  13. Height                                   : 800 pixels
  14. Display aspect ratio                     : 2.40:1
  15. Frame rate mode                          : Constant
  16. Frame rate                               : 23.976 FPS
  17. Color space                              : YUV
  18. Chroma subsampling                       : 4:2:0
  19. Bit depth                                : 8 bits
  20. Scan type                                : Progressive
  21. Bits/(Pixel*Frame)                       : 0.124
  22. Stream size                              : 2.61 GiB (92%)
  23. Title                                    : Riot.Girls.2019.1080p.WEB-DL.DD5.1.H264-FGT
  24. Language                                 : English
  25. Default                                  : Yes
  26. Forced                                   : No
  27. Color range                              : Limited
  28. Color primaries                          : BT.709
  29. Transfer characteristics                 : BT.709
  30. Matrix coefficients                      : BT.709

  31. Audio
  32. ID                                       : 2
  33. Format                                   : AC-3
  34. Format/Info                              : Audio Coding 3
  35. Commercial name                          : Dolby Digital
  36. Codec ID                                 : A_AC3
  37. Duration                                 : 1 h 21 min
  38. Bit rate mode                            : Constant
  39. Bit rate                                 : 384 kb/s
  40. Channel(s)                               : 6 channels
  41. Channel layout                           : L R C LFE Ls Rs
  42. Sampling rate                            : 48.0 kHz
  43. Frame rate                               : 31.250 FPS (1536 SPF)
  44. Bit depth                                : 16 bits
  45. Compression mode                         : Lossy
  46. Stream size                              : 225 MiB (8%)
  47. Title                                    : Riot.Girls.2019.1080p.WEB-DL.DD5.1.H264-FGT
  48. Language                                 : English
  49. Service kind                             : Complete Main
  50. Default                                  : Yes
  51. Forced                                   : No

  52. Text
  53. ID                                       : 3
  54. Format                                   : UTF-8
  55. Codec ID                                 : S_TEXT/UTF8
  56. Codec ID/Info                            : UTF-8 Plain Text
  57. Duration                                 : 1 h 21 min
  58. Bit rate                                 : 75 b/s
  59. Count of elements                        : 1198
  60. Stream size                              : 44.8 KiB (0%)
  61. Language                                 : English
  62. Default                                  : Yes
  63. Forced                                   : No

  64. Menu
  65. 00:00:00.000                             : en:1
  66. 00:11:07.834                             : en:2
  67. 00:21:26.327                             : en:3
  68. 00:32:20.856                             : en:4
  69. 00:43:09.337                             : en:5
  70. 00:55:02.590                             : en:6
  71. 01:02:55.437                             : en:7
  72. 01:15:55.757                             : en:8
复制代码

防暴女孩 Riot.Girls.2019.1080p.WEB-DL.DD5.1.H264-FGT 2.83GB-2.png 防暴女孩 Riot.Girls.2019.1080p.WEB-DL.DD5.1.H264-FGT 2.83GB-3.png 防暴女孩 Riot.Girls.2019.1080p.WEB-DL.DD5.1.H264-FGT 2.83GB-4.png






VIP会员免费任意下载本站所有资源!---点击开通
回复

使用道具 举报

懒得打字嘛,点击右侧快捷回复 【右侧内容,后台自定义】
您需要登录后才可以回帖 登录 | 立即注册

本版积分规则

QQ|Archiver|手机版|小黑屋| 中国高清网 |网站地图

GMT+8, 2019-9-21 21:38 , Processed in 0.480333 second(s), 39 queries .

Powered by HDchina X3.4

Copyright 2017-2019©HDchina.All right reserved

返回顶部 联系我们