查看: 14|回复: 0

[剧情片] 心琴调音师 The.Sound.Of.Silence.2019.1080p.WEB-DL.DD5.1.H264-FGT 3.01GB

[复制链接]

 成长值: 2570

级别:资源管理组

注册时间
2017-10-20
最后登录
2019-9-21
听众
1
收听
0
主题
83026
蓝光币
49759 枚
贡献
7354 点
发表于 2019-9-13 16:21:27 | 显示全部楼层 |阅读模式
心琴调音师 The.Sound.Of.Silence.2019.1080p.WEB-DL.DD5.1.H264-FGT 3.01GB-1.png

译  名 心琴调音师
片  名 The Sound of Silence
年  代 2019
产  地 美国
类  别 剧情
语  言 英语
上映日期 2019-01-26(圣丹斯电影节) / 2019-09-13(美国)
IMDb评分  5.6/10 from 90 users
IMDb链接  http://www.imdb.com/title/tt9352926
豆瓣评分 0/10 from 0 users
豆瓣链接 https://movie.douban.com/subject/30390698/
片  长 85分钟
导  演 Michael Tyburski
编  剧 Ben Nabors / Michael Tyburski
主  演 拉什达·琼斯 Rashida Jones
       彼得·萨斯加德 Peter Sarsgaard
       托尼·雷沃罗利 Tony Revolori
       奥斯汀·潘德尔顿 Austin Pendleton
       凯特·林恩·希尔 Kate Lyn Sheil
       亚历克斯·卡普夫斯基 Alex Karpovsky
       布鲁斯·奥尔特曼 Bruce Altman
       特雷西·齐默 Tracee Chimo
       多夫·蒂芬巴奇 Dov Tiefenbach
       蒂娜·本科 Tina Benko
       Alison Fraser
       巴威石·帕特尔 Bhavesh Patel
       Chet Siegel


标  签 美国 | 声音 | 上影节 | SFF2019 | 2019 | 剧情 | 电影节 | 自力

简  介  

  人们都说,纽约是个不夜城,但彼得·卢西恩以为自己有法子处理纽约人的失眠题目。彼得并不是一位实在的科学家,而是一个所谓的“家庭调音师”。他以为,各类百般的乐音是他的顾客们压力重重、心里焦虑的罪魁罪魁。是以,就像某种专攻声音的风水大师一样,这位独行侠访问一个个焦躁的都会人,来到他们的家中,试图寻觅是什么样的乐音在影响他们的生活和心理状态。影响人们就寝的,也许是冰箱工作时的嗡嗡声,大概是地板发出的吱吱声,也能够是烤面包机的声音……

获奖情况  

  第35届圣丹斯电影节(2019)
  评审团大奖 剧情片(提名)
  1. Video
  2. ID                                       : 1
  3. Format                                   : AVC
  4. Format/Info                              : Advanced Video Codec
  5. Format profile                           : <a href="/cdn-cgi/l/email-protection" class="__cf_email__" data-cfemail="e6ae8f818ea6aad2">[email protected]</a>
  6. Format settings                          : CABAC / 4 Ref Frames
  7. Format settings, CABAC                   : Yes
  8. Format settings, Reference frames        : 4 frames
  9. Codec ID                                 : V_MPEG4/ISO/AVC
  10. Duration                                 : 1 h 27 min
  11. Bit rate                                 : 4 545 kb/s
  12. Width                                    : 1 920 pixels
  13. Height                                   : 952 pixels
  14. Display aspect ratio                     : 2.017
  15. Frame rate mode                          : Constant
  16. Frame rate                               : 23.976 FPS
  17. Color space                              : YUV
  18. Chroma subsampling                       : 4:2:0
  19. Bit depth                                : 8 bits
  20. Scan type                                : Progressive
  21. Bits/(Pixel*Frame)                       : 0.104
  22. Stream size                              : 2.77 GiB (92%)
  23. Title                                    : The.Sound.Of.Silence.2019.1080p.WEB-DL.DD5.1.H264-FGT
  24. Language                                 : English
  25. Default                                  : Yes
  26. Forced                                   : No
  27. Color range                              : Limited
  28. Color primaries                          : BT.709
  29. Transfer characteristics                 : BT.709
  30. Matrix coefficients                      : BT.709

  31. Audio
  32. ID                                       : 2
  33. Format                                   : AC-3
  34. Format/Info                              : Audio Coding 3
  35. Commercial name                          : Dolby Digital
  36. Codec ID                                 : A_AC3
  37. Duration                                 : 1 h 27 min
  38. Bit rate mode                            : Constant
  39. Bit rate                                 : 384 kb/s
  40. Channel(s)                               : 6 channels
  41. Channel layout                           : L R C LFE Ls Rs
  42. Sampling rate                            : 48.0 kHz
  43. Frame rate                               : 31.250 FPS (1536 SPF)
  44. Bit depth                                : 16 bits
  45. Compression mode                         : Lossy
  46. Stream size                              : 240 MiB (8%)
  47. Title                                    : The.Sound.Of.Silence.2019.1080p.WEB-DL.DD5.1.H264-FGT
  48. Language                                 : English
  49. Service kind                             : Complete Main
  50. Default                                  : Yes
  51. Forced                                   : No

  52. Text
  53. ID                                       : 3
  54. Format                                   : UTF-8
  55. Codec ID                                 : S_TEXT/UTF8
  56. Codec ID/Info                            : UTF-8 Plain Text
  57. Duration                                 : 1 h 26 min
  58. Bit rate                                 : 68 b/s
  59. Count of elements                        : 1123
  60. Stream size                              : 43.8 KiB (0%)
  61. Language                                 : English
  62. Default                                  : Yes
  63. Forced                                   : No

  64. Menu
  65. 00:00:00.000                             : en:1
  66. 00:10:26.418                             : en:2
  67. 00:23:12.642                             : en:3
  68. 00:32:16.352                             : en:4
  69. 00:44:31.045                             : en:5
  70. 00:54:14.420                             : en:6
  71. 01:04:42.965                             : en:7
  72. 01:14:11.867                             : en:8
  73. 01:23:14.618                             : en:9
复制代码

心琴调音师 The.Sound.Of.Silence.2019.1080p.WEB-DL.DD5.1.H264-FGT 3.01GB-2.png 心琴调音师 The.Sound.Of.Silence.2019.1080p.WEB-DL.DD5.1.H264-FGT 3.01GB-3.png 心琴调音师 The.Sound.Of.Silence.2019.1080p.WEB-DL.DD5.1.H264-FGT 3.01GB-4.png






VIP会员免费任意下载本站所有资源!---点击开通
回复

使用道具 举报

懒得打字嘛,点击右侧快捷回复 【右侧内容,后台自定义】
您需要登录后才可以回帖 登录 | 立即注册

本版积分规则

QQ|Archiver|手机版|小黑屋| 中国高清网 |网站地图

GMT+8, 2019-9-21 21:01 , Processed in 0.407886 second(s), 39 queries .

Powered by HDchina X3.4

Copyright 2017-2019©HDchina.All right reserved

返回顶部 联系我们