查看: 10|回复: 0

[剧情片] 尘封往事 Past.Life.2016.SUBBED.1080p.WEBRip.x264-RARBG 2.09GB

[复制链接]

 成长值: 2570

级别:资源管理组

注册时间
2017-10-20
最后登录
2019-9-21
听众
1
收听
0
主题
83026
蓝光币
49781 枚
贡献
7354 点
发表于 2019-9-13 13:17:09 | 显示全部楼层 |阅读模式
尘封往事 Past.Life.2016.SUBBED.1080p.WEBRip.x264-RARBG 2.09GB-1.png

译  名 尘封往事
片  名 Past Life
年  代 2016
产  地 以色列 / 波兰
类  别 剧情
语  言 英语 / 德语 / 波兰语 / 西伯尔
上映日期 2016-12-01(以色列)
IMDb评分  6.4/10 from 435 users
IMDb链接  http://www.imdb.com/title/tt5787384
豆瓣评分 0/10 from 0 users
豆瓣链接 https://movie.douban.com/subject/26914325/
片  长 109分钟
导  演 阿维·耐舍 Avi Nesher
编  剧 阿维·耐舍 Avi Nesher
主  演 内莉· 塔加尔 Nelly Tagar
       乔伊·列赫尔 Joy Rieger
       多隆·塔夫瑞 Doron Tavory
       叶夫根尼娅·冬妮娜 Evgenia Dodina
       汤姆·阿芙尼 Tom Avni
       拉斐尔·斯塔霍维亚克 Rafael Stachowiak
       穆利·舒尔曼 Muli Shulman


标  签 以色列 | 波兰 | 以色列电影 | 战争 | 2016 | 实在事务改编 | 二战 | 剧情

简  介  

  纳粹大屠杀已成曩昔,但往事并不如烟。两姐妹是以色列幸存者之女,妹妹在柏林被骂是“杀人凶手女儿”,姐姐对独裁生父原本旨抱恨愤,对父亲认可战时在波兰忍辱求存的故事将信将疑,决意清查家属隐藏奥秘。埋于心底回忆遂步解封,却扯开新的伤口淌血,姐姐更将患癌归罪于父亲罪孽的因果报应。 曩昔缭绕,反悔能否获得体谅,以饶恕化解冤仇?
  1. Video
  2. ID                                       : 1
  3. Format                                   : AVC
  4. Format/Info                              : Advanced Video Codec
  5. Format profile                           : <a href="/cdn-cgi/l/email-protection" class="__cf_email__" data-cfemail="a0e8c9c7c8e0ec948e91">[email protected]</a>
  6. Format settings                          : CABAC / 4 Ref Frames
  7. Format settings, CABAC                   : Yes
  8. Format settings, Reference frames        : 4 frames
  9. Codec ID                                 : avc1
  10. Codec ID/Info                            : Advanced Video Coding
  11. Duration                                 : 1 h 49 min
  12. Bit rate                                 : 2 500 kb/s
  13. Width                                    : 1 920 pixels
  14. Height                                   : 816 pixels
  15. Display aspect ratio                     : 2.35:1
  16. Frame rate mode                          : Constant
  17. Frame rate                               : 24.000 FPS
  18. Color space                              : YUV
  19. Chroma subsampling                       : 4:2:0
  20. Bit depth                                : 8 bits
  21. Scan type                                : Progressive
  22. Bits/(Pixel*Frame)                       : 0.066
  23. Stream size                              : 1.91 GiB (92%)
  24. Writing library                          : x264 core 152 r2851M ba24899
  25. Encoding settings                        : cabac=1 / ref=4 / deblock=1:-1:-1 / analyse=0x3:0x113 / me=umh / subme=9 / psy=1 / psy_rd=1.00:0.15 / mixed_ref=1 / me_range=24 / chroma_me=1 / trellis=2 / 8x8dct=1 / cqm=0 / deadzone=21,11 / fast_pskip=1 / chroma_qp_offset=-3 / threads=16 / lookahead_threads=4 / sliced_threads=0 / nr=0 / decimate=1 / interlaced=0 / bluray_compat=0 / constrained_intra=0 / bframes=3 / b_pyramid=2 / b_adapt=2 / b_bias=0 / direct=3 / weightb=1 / open_gop=0 / weightp=2 / keyint=250 / keyint_min=25 / scenecut=40 / intra_refresh=0 / rc_lookahead=50 / rc=2pass / mbtree=1 / bitrate=2500 / ratetol=1.0 / qcomp=0.60 / qpmin=0 / qpmax=69 / qpstep=4 / cplxblur=20.0 / qblur=0.5 / vbv_maxrate=31250 / vbv_bufsize=31250 / nal_hrd=none / filler=0 / ip_ratio=1.40 / aq=3:1.00
  26. Encoded date                             : UTC 2019-09-13 01:41:50
  27. Tagged date                              : UTC 2019-09-13 01:41:50
  28. Codec configuration box                  : avcC

  29. Audio
  30. ID                                       : 2
  31. Format                                   : AAC LC
  32. Format/Info                              : Advanced Audio Codec Low Complexity
  33. Codec ID                                 : mp4a-40-2
  34. Duration                                 : 1 h 49 min
  35. Duration_LastFrame                       : -11 ms
  36. Bit rate mode                            : Constant
  37. Bit rate                                 : 224 kb/s
  38. Channel(s)                               : 6 channels
  39. Channel layout                           : C L R Ls Rs LFE
  40. Sampling rate                            : 48.0 kHz
  41. Frame rate                               : 46.875 FPS (1024 SPF)
  42. Compression mode                         : Lossy
  43. Stream size                              : 176 MiB (8%)
  44. Language                                 : Hebrew
  45. Default                                  : Yes
  46. Alternate group                          : 1
  47. Encoded date                             : UTC 2019-09-13 01:41:50
  48. Tagged date                              : UTC 2019-09-13 01:41:50
复制代码

尘封往事 Past.Life.2016.SUBBED.1080p.WEBRip.x264-RARBG 2.09GB-2.png 尘封往事 Past.Life.2016.SUBBED.1080p.WEBRip.x264-RARBG 2.09GB-3.png 尘封往事 Past.Life.2016.SUBBED.1080p.WEBRip.x264-RARBG 2.09GB-4.png






VIP会员免费任意下载本站所有资源!---点击开通
回复

使用道具 举报

懒得打字嘛,点击右侧快捷回复 【右侧内容,后台自定义】
您需要登录后才可以回帖 登录 | 立即注册

本版积分规则

QQ|Archiver|手机版|小黑屋| 中国高清网 |网站地图

GMT+8, 2019-9-21 21:54 , Processed in 0.432738 second(s), 39 queries .

Powered by HDchina X3.4

Copyright 2017-2019©HDchina.All right reserved

返回顶部 联系我们