查看: 9|回复: 0

[喜剧片] 紧急盯梢令/窥佬杂差 Stakeout.1987.1080p.WEBRip.x264-RARBG 2.24GB

[复制链接]

 成长值: 2570

级别:资源管理组

注册时间
2017-10-20
最后登录
2019-9-21
听众
1
收听
0
主题
83026
蓝光币
49763 枚
贡献
7354 点
发表于 2019-9-13 13:16:01 | 显示全部楼层 |阅读模式
告急钉梢令/窥佬杂差 Stakeout.1987.1080p.WEBRip.x264-RARBG 2.24GB-1.png

译  名 告急钉梢令 / 窥佬杂差
片  名 Stakeout
年  代 1987
产  地 美国
类  别 笑剧 / 行动 / 恋爱 / 惊悚 / 犯罪
语  言 英语
上映日期 1987-08-05
IMDb评分  6.6/10 from 21809 users
IMDb链接  http://www.imdb.com/title/tt0094025
豆瓣评分 6.9/10 from 102 users
豆瓣链接 https://movie.douban.com/subject/1302202/
片  长 117 分钟
导  演 约翰·班德汉姆 John Badham
编  剧 Jim Kouf
主  演 理查德·德莱弗斯 Richard Dreyfuss
       艾米利奥·艾斯特维兹 Emilio Estevez
       玛德琳·斯托 Madeleine Stowe
       艾丹·奎因 Aidan Quinn
       福里斯特·惠特克 Forest Whitaker


标  签 笑剧 | 美国 | 玛德琳·斯托 | 行动 | 1987 | 美国电影 | 犯罪 | 美國

简  介  

  两名侦察观察了一位逃犯的前女友,但当其中一人爱上她时,情况就变得复杂起来。
  1. Video
  2. ID                                       : 1
  3. Format                                   : AVC
  4. Format/Info                              : Advanced Video Codec
  5. Format profile                           : <a href="/cdn-cgi/l/email-protection" class="__cf_email__" data-cfemail="96defff1fed6daa2b8a7">[email protected]</a>
  6. Format settings                          : CABAC / 4 Ref Frames
  7. Format settings, CABAC                   : Yes
  8. Format settings, Reference frames        : 4 frames
  9. Codec ID                                 : avc1
  10. Codec ID/Info                            : Advanced Video Coding
  11. Duration                                 : 1 h 57 min
  12. Bit rate                                 : 2 500 kb/s
  13. Width                                    : 1 920 pixels
  14. Height                                   : 1 040 pixels
  15. Display aspect ratio                     : 1.85:1
  16. Frame rate mode                          : Constant
  17. Frame rate                               : 23.976 (23976/1000) FPS
  18. Color space                              : YUV
  19. Chroma subsampling                       : 4:2:0
  20. Bit depth                                : 8 bits
  21. Scan type                                : Progressive
  22. Bits/(Pixel*Frame)                       : 0.052
  23. Stream size                              : 2.05 GiB (92%)
  24. Writing library                          : x264 core 152 r2851M ba24899
  25. Encoding settings                        : cabac=1 / ref=4 / deblock=1:-1:-1 / analyse=0x3:0x113 / me=umh / subme=9 / psy=1 / psy_rd=1.00:0.15 / mixed_ref=1 / me_range=24 / chroma_me=1 / trellis=2 / 8x8dct=1 / cqm=0 / deadzone=21,11 / fast_pskip=1 / chroma_qp_offset=-3 / threads=16 / lookahead_threads=4 / sliced_threads=0 / nr=0 / decimate=1 / interlaced=0 / bluray_compat=0 / constrained_intra=0 / bframes=3 / b_pyramid=2 / b_adapt=2 / b_bias=0 / direct=3 / weightb=1 / open_gop=0 / weightp=2 / keyint=250 / keyint_min=25 / scenecut=40 / intra_refresh=0 / rc_lookahead=50 / rc=2pass / mbtree=1 / bitrate=2500 / ratetol=1.0 / qcomp=0.60 / qpmin=0 / qpmax=69 / qpstep=4 / cplxblur=20.0 / qblur=0.5 / vbv_maxrate=31250 / vbv_bufsize=31250 / nal_hrd=none / filler=0 / ip_ratio=1.40 / aq=3:1.00
  26. Encoded date                             : UTC 2019-09-13 02:23:45
  27. Tagged date                              : UTC 2019-09-13 02:23:45
  28. Codec configuration box                  : avcC

  29. Audio
  30. ID                                       : 2
  31. Format                                   : AAC LC
  32. Format/Info                              : Advanced Audio Codec Low Complexity
  33. Codec ID                                 : mp4a-40-2
  34. Duration                                 : 1 h 57 min
  35. Bit rate mode                            : Constant
  36. Bit rate                                 : 224 kb/s
  37. Channel(s)                               : 6 channels
  38. Channel layout                           : C L R Ls Rs LFE
  39. Sampling rate                            : 48.0 kHz
  40. Frame rate                               : 46.875 FPS (1024 SPF)
  41. Compression mode                         : Lossy
  42. Stream size                              : 188 MiB (8%)
  43. Language                                 : English
  44. Default                                  : Yes
  45. Alternate group                          : 1
  46. Encoded date                             : UTC 2019-09-13 02:23:45
  47. Tagged date                              : UTC 2019-09-13 02:23:45
复制代码

告急钉梢令/窥佬杂差 Stakeout.1987.1080p.WEBRip.x264-RARBG 2.24GB-2.png 告急钉梢令/窥佬杂差 Stakeout.1987.1080p.WEBRip.x264-RARBG 2.24GB-3.png 告急钉梢令/窥佬杂差 Stakeout.1987.1080p.WEBRip.x264-RARBG 2.24GB-4.png






VIP会员免费任意下载本站所有资源!---点击开通
回复

使用道具 举报

懒得打字嘛,点击右侧快捷回复 【右侧内容,后台自定义】
您需要登录后才可以回帖 登录 | 立即注册

本版积分规则

QQ|Archiver|手机版|小黑屋| 中国高清网 |网站地图

GMT+8, 2019-9-21 21:15 , Processed in 0.505102 second(s), 39 queries .

Powered by HDchina X3.4

Copyright 2017-2019©HDchina.All right reserved

返回顶部 联系我们