查看: 9|回复: 0

[传记片] 菲尔·斯派特/菲尔史佩克特传奇 Phil.Spector.2013.1080p.AMZN.WEBRip.DDP5.1.x264-NTb 7.45GB

[复制链接]

 成长值: 2570

级别:资源管理组

注册时间
2017-10-20
最后登录
2019-9-21
听众
1
收听
0
主题
83009
蓝光币
49625 枚
贡献
7337 点
发表于 2019-9-13 11:33:09 | 显示全部楼层 |阅读模式
菲尔·斯派特/菲尔史佩克特传奇 Phil.Spector.2013.1080p.AMZN.WEBRip.DDP5.1.x264-NTb 7.45GB-1.png

译  名 菲尔·斯派特 / 菲尔史佩克特传奇(台)
片  名 Phil Spector
年  代 2013
产  地 美国
类  别 列传
语  言 英语
上映日期 2013-03-24
IMDb评分  6.2/10 from 6129 users
IMDb链接  http://www.imdb.com/title/tt1745862
豆瓣评分 6.9/10 from 176 users
豆瓣链接 https://movie.douban.com/subject/6729343/
片  长 92分钟
导  演 大卫·马梅 David Mamet
编  剧 大卫·马梅 David Mamet
主  演 阿尔·帕西诺 Al Pacino
       海伦·米伦 Helen Mirren
       杰弗里·塔伯 Jeffrey Tambor


标  签 列传 | AlPacino | 阿尔·帕西诺 | HBO | 美国 | HelenMirren | 美国电影 | 2013

简  介  

  HBO出品的电视电影。
  菲尔·斯派特,美国著名唱片建造人,这位音乐鬼才曾建造了无数典范名曲,影响了整整一代的风行音乐偏向,他获得过屡次格莱美奖,而且还在1989年入主了摇滚名流堂。与他合作过的大牌音乐人有披头士乐队、莱昂纳德·科恩、正义兄弟独唱团、雷蒙斯乐队、乔治·哈里森等等,几近各个都如雷灌耳。
  本片聚焦于斯派特在2003年遭到谋杀控告后的履历:昔时2月3日,他在好莱坞日落大道上的一家夜总会结识在店里担任办事生的拉娜·克拉克森。两人后来一路返回菲尔·斯派特座落于洛杉矶近郊艾罕布拉市的豪宅。未料,清晨时分室内传出枪响,当警方赶到时,嘴部中弹的克拉克森已气绝身亡。菲尔·斯派特后来在法庭上宣称克拉克森是举枪自杀。全案历经六年的冗杂庭审、并经陪审团凝听多名控方证人的证词,包括指出菲尔·斯派特曾有屡次持枪威胁女子的行为,并检验相关证据后,终极判决他二级谋杀罪名建立。

获奖情况  

  第71届金球奖(2014)
  电视类 迷你剧/电视电影最好男配角(提名) 阿尔·帕西诺
  电视类 迷你剧/电视电影最好女配角(提名) 海伦·米伦

  第65届黄金时段艾美奖(2013)
  迷你剧/电视电影 最好迷你剧/电视电影(提名)
  迷你剧/电视电影 最好男配角(提名) 阿尔·帕西诺
  迷你剧/电视电影 最好女配角(提名) 海伦·米伦

  第66届美国导演工会奖(2014)
  最好电视电影/迷你剧导演(提名) 大卫·马梅

  第20届美国演员工会奖(2014)
  电视奖 电视电影/迷你剧最好男演员(提名) 阿尔·帕西诺
  电视奖 电视电影/迷你剧最好女演员 海伦·米伦

  第25届美国制片野生会奖(2014)
  最好电视长片制片人奖(提名) 迈克尔·豪斯曼 / 巴瑞·莱文森

  第64届美国剪辑工会奖(2014)
  迷你剧/电视电影最好剪辑(提名) Barbara Tulliver

  第16届美国打扮设想工会奖(2014)
  电视电影/迷你剧最好打扮设想(提名) Debra McGuire

  第50届美国声音结果协会奖(2014)
  电视电影/迷你剧最好音效(提名) Chris Fogel / Gary Alper / Don White / Michael Barry

  第18届金卫星奖(2014)
  电视部分 最好迷你剧/电视电影(提名)
  电视部分 迷你剧/电视电影最好男配角(提名) 阿尔·帕西诺
  电视部分 迷你剧/电视电影最好女配角(提名) 海伦·米伦
  1. Video
  2. ID                                       : 1
  3. Format                                   : AVC
  4. Format/Info                              : Advanced Video Codec
  5. Format profile                           : <a href="/cdn-cgi/l/email-protection" class="__cf_email__" data-cfemail="7931101e1139354d">[email protected]</a>
  6. Format settings                          : CABAC / 4 Ref Frames
  7. Format settings, CABAC                   : Yes
  8. Format settings, Reference frames        : 4 frames
  9. Codec ID                                 : V_MPEG4/ISO/AVC
  10. Duration                                 : 1 h 31 min
  11. Bit rate mode                            : Variable
  12. Bit rate                                 : 10.8 Mb/s
  13. Maximum bit rate                         : 15.0 Mb/s
  14. Width                                    : 1 920 pixels
  15. Height                                   : 1 080 pixels
  16. Display aspect ratio                     : 16:9
  17. Frame rate mode                          : Constant
  18. Frame rate                               : 23.976 (24000/1001) FPS
  19. Color space                              : YUV
  20. Chroma subsampling                       : 4:2:0
  21. Bit depth                                : 8 bits
  22. Scan type                                : Progressive
  23. Bits/(Pixel*Frame)                       : 0.216
  24. Stream size                              : 6.89 GiB (93%)
  25. Writing library                          : x264 core 148 r2623 d5b2374
  26. Encoding settings                        : cabac=1 / ref=4 / deblock=1:-1:-1 / analyse=0x3:0x133 / me=umh / subme=9 / psy=1 / psy_rd=1.00:0.15 / mixed_ref=1 / me_range=24 / chroma_me=1 / trellis=2 / 8x8dct=1 / cqm=0 / deadzone=21,11 / fast_pskip=1 / chroma_qp_offset=-3 / threads=34 / lookahead_threads=5 / sliced_threads=0 / nr=150 / decimate=1 / interlaced=0 / bluray_compat=0 / constrained_intra=0 / bframes=8 / b_pyramid=2 / b_adapt=2 / b_bias=0 / direct=3 / weightb=1 / open_gop=0 / weightp=2 / keyint=120 / keyint_min=61 / scenecut=0 / intra_refresh=0 / rc_lookahead=120 / rc=crf / mbtree=1 / crf=18.0 / qcomp=0.60 / qpmin=0 / qpmax=69 / qpstep=4 / vbv_maxrate=15000 / vbv_bufsize=31250 / crf_max=0.0 / nal_hrd=vbr / filler=0 / ip_ratio=1.40 / aq=3:1.00
  27. Default                                  : Yes
  28. Forced                                   : No
  29. Color range                              : Limited
  30. Color primaries                          : BT.709
  31. Transfer characteristics                 : BT.709
  32. Matrix coefficients                      : BT.709

  33. Audio
  34. ID                                       : 2
  35. Format                                   : E-AC-3
  36. Format/Info                              : Enhanced AC-3
  37. Commercial name                          : Dolby Digital Plus
  38. Codec ID                                 : A_EAC3
  39. Duration                                 : 1 h 31 min
  40. Bit rate mode                            : Constant
  41. Bit rate                                 : 640 kb/s
  42. Channel(s)                               : 6 channels
  43. Channel layout                           : L R C LFE Ls Rs
  44. Sampling rate                            : 48.0 kHz
  45. Frame rate                               : 31.250 FPS (1536 SPF)
  46. Compression mode                         : Lossy
  47. Stream size                              : 420 MiB (6%)
  48. Language                                 : English
  49. Service kind                             : Complete Main
  50. Default                                  : Yes
  51. Forced                                   : No

  52. Text
  53. ID                                       : 3
  54. Format                                   : UTF-8
  55. Codec ID                                 : S_TEXT/UTF8
  56. Codec ID/Info                            : UTF-8 Plain Text
  57. Language                                 : English
  58. Default                                  : No
  59. Forced                                   : No
复制代码

菲尔·斯派特/菲尔史佩克特传奇 Phil.Spector.2013.1080p.AMZN.WEBRip.DDP5.1.x264-NTb 7.45GB-2.png 菲尔·斯派特/菲尔史佩克特传奇 Phil.Spector.2013.1080p.AMZN.WEBRip.DDP5.1.x264-NTb 7.45GB-3.png 菲尔·斯派特/菲尔史佩克特传奇 Phil.Spector.2013.1080p.AMZN.WEBRip.DDP5.1.x264-NTb 7.45GB-4.png 菲尔·斯派特/菲尔史佩克特传奇 Phil.Spector.2013.1080p.AMZN.WEBRip.DDP5.1.x264-NTb 7.45GB-5.png 菲尔·斯派特/菲尔史佩克特传奇 Phil.Spector.2013.1080p.AMZN.WEBRip.DDP5.1.x264-NTb 7.45GB-6.png 菲尔·斯派特/菲尔史佩克特传奇 Phil.Spector.2013.1080p.AMZN.WEBRip.DDP5.1.x264-NTb 7.45GB-7.png






VIP会员免费任意下载本站所有资源!---点击开通
回复

使用道具 举报

懒得打字嘛,点击右侧快捷回复 【右侧内容,后台自定义】
您需要登录后才可以回帖 登录 | 立即注册

本版积分规则

QQ|Archiver|手机版|小黑屋| 中国高清网 |网站地图

GMT+8, 2019-9-21 14:53 , Processed in 0.424715 second(s), 39 queries .

Powered by HDchina X3.4

Copyright 2017-2019©HDchina.All right reserved

返回顶部 联系我们