查看: 11|回复: 0

[喜剧片] 紧急盯梢令/窥佬杂差 Stakeout.1987.1080p.AMZN.WEBRip.DDP5.1.x264-AM 12.41GB

[复制链接]

 成长值: 2570

级别:资源管理组

注册时间
2017-10-20
最后登录
2019-9-21
听众
1
收听
0
主题
83009
蓝光币
49631 枚
贡献
7337 点
发表于 2019-9-13 11:30:13 | 显示全部楼层 |阅读模式
告急钉梢令/窥佬杂差 Stakeout.1987.1080p.AMZN.WEBRip.DDP5.1.x264-AM 12.41GB-1.png

译  名 告急钉梢令 / 窥佬杂差
片  名 Stakeout
年  代 1987
产  地 美国
类  别 笑剧 / 行动 / 恋爱 / 惊悚 / 犯罪
语  言 英语
上映日期 1987-08-05
IMDb评分  6.6/10 from 21809 users
IMDb链接  http://www.imdb.com/title/tt0094025
豆瓣评分 6.9/10 from 102 users
豆瓣链接 https://movie.douban.com/subject/1302202/
片  长 117 分钟
导  演 约翰·班德汉姆 John Badham
编  剧 Jim Kouf
主  演 理查德·德莱弗斯 Richard Dreyfuss
       艾米利奥·艾斯特维兹 Emilio Estevez
       玛德琳·斯托 Madeleine Stowe
       艾丹·奎因 Aidan Quinn
       福里斯特·惠特克 Forest Whitaker


标  签 笑剧 | 美国 | 玛德琳·斯托 | 行动 | 1987 | 美国电影 | 犯罪 | 美國

简  介  

  两名侦察观察了一位逃犯的前女友,但当其中一人爱上她时,情况就变得复杂起来。
  1. Video
  2. ID                                       : 1
  3. Format                                   : AVC
  4. Format/Info                              : Advanced Video Codec
  5. Format profile                           : <a href="/cdn-cgi/l/email-protection" class="__cf_email__" data-cfemail="561e3f313e161a62">[email protected]</a>
  6. Format settings                          : CABAC / 4 Ref Frames
  7. Format settings, CABAC                   : Yes
  8. Format settings, Reference frames        : 4 frames
  9. Codec ID                                 : V_MPEG4/ISO/AVC
  10. Duration                                 : 1 h 57 min
  11. Bit rate mode                            : Variable
  12. Bit rate                                 : 14.5 Mb/s
  13. Maximum bit rate                         : 15.0 Mb/s
  14. Width                                    : 1 920 pixels
  15. Height                                   : 1 040 pixels
  16. Display aspect ratio                     : 1.85:1
  17. Frame rate mode                          : Constant
  18. Frame rate                               : 23.976 (24000/1001) FPS
  19. Color space                              : YUV
  20. Chroma subsampling                       : 4:2:0
  21. Bit depth                                : 8 bits
  22. Scan type                                : Progressive
  23. Bits/(Pixel*Frame)                       : 0.303
  24. Stream size                              : 11.9 GiB (96%)
  25. Writing library                          : x264 core 148 r2623 d5b2374
  26. Encoding settings                        : cabac=1 / ref=4 / deblock=1:-1:-1 / analyse=0x3:0x133 / me=umh / subme=9 / psy=1 / psy_rd=1.00:0.15 / mixed_ref=1 / me_range=24 / chroma_me=1 / trellis=2 / 8x8dct=1 / cqm=0 / deadzone=21,11 / fast_pskip=1 / chroma_qp_offset=-3 / threads=32 / lookahead_threads=5 / sliced_threads=0 / nr=150 / decimate=1 / interlaced=0 / bluray_compat=0 / constrained_intra=0 / bframes=8 / b_pyramid=2 / b_adapt=2 / b_bias=0 / direct=3 / weightb=1 / open_gop=0 / weightp=2 / keyint=120 / keyint_min=61 / scenecut=0 / intra_refresh=0 / rc_lookahead=120 / rc=crf / mbtree=1 / crf=18.0 / qcomp=0.60 / qpmin=0 / qpmax=69 / qpstep=4 / vbv_maxrate=15000 / vbv_bufsize=31250 / crf_max=0.0 / nal_hrd=vbr / filler=0 / ip_ratio=1.40 / aq=3:1.00
  27. Default                                  : Yes
  28. Forced                                   : No
  29. Color range                              : Limited
  30. Color primaries                          : BT.709
  31. Transfer characteristics                 : BT.709
  32. Matrix coefficients                      : BT.709

  33. Audio
  34. ID                                       : 2
  35. Format                                   : E-AC-3
  36. Format/Info                              : Enhanced AC-3
  37. Commercial name                          : Dolby Digital Plus
  38. Codec ID                                 : A_EAC3
  39. Duration                                 : 1 h 57 min
  40. Bit rate mode                            : Constant
  41. Bit rate                                 : 640 kb/s
  42. Channel(s)                               : 6 channels
  43. Channel layout                           : L R C LFE Ls Rs
  44. Sampling rate                            : 48.0 kHz
  45. Frame rate                               : 31.250 FPS (1536 SPF)
  46. Compression mode                         : Lossy
  47. Stream size                              : 537 MiB (4%)
  48. Language                                 : English
  49. Service kind                             : Complete Main
  50. Default                                  : Yes
  51. Forced                                   : No

  52. Text
  53. ID                                       : 3
  54. Format                                   : UTF-8
  55. Codec ID                                 : S_TEXT/UTF8
  56. Codec ID/Info                            : UTF-8 Plain Text
  57. Duration                                 : 1 h 55 min
  58. Bit rate                                 : 50 b/s
  59. Count of elements                        : 1767
  60. Stream size                              : 42.6 KiB (0%)
  61. Language                                 : English
  62. Default                                  : No
  63. Forced                                   : No

  64. Menu
  65. 00:00:00.000                             : en:Chapter 1
  66. 00:10:58.000                             : en:Chapter 2
  67. 00:20:38.000                             : en:Chapter 3
  68. 00:30:45.000                             : en:Chapter 4
  69. 00:41:07.000                             : en:Chapter 5
  70. 00:52:00.000                             : en:Chapter 6
  71. 01:00:50.000                             : en:Chapter 7
  72. 01:10:55.000                             : en:Chapter 8
  73. 01:20:40.000                             : en:Chapter 9
  74. 01:30:57.000                             : en:Chapter 10
  75. 01:42:52.000                             : en:Chapter 11
  76. 01:50:36.000                             : en:Chapter 12
复制代码

告急钉梢令/窥佬杂差 Stakeout.1987.1080p.AMZN.WEBRip.DDP5.1.x264-AM 12.41GB-2.png 告急钉梢令/窥佬杂差 Stakeout.1987.1080p.AMZN.WEBRip.DDP5.1.x264-AM 12.41GB-3.png 告急钉梢令/窥佬杂差 Stakeout.1987.1080p.AMZN.WEBRip.DDP5.1.x264-AM 12.41GB-4.png 告急钉梢令/窥佬杂差 Stakeout.1987.1080p.AMZN.WEBRip.DDP5.1.x264-AM 12.41GB-5.png 告急钉梢令/窥佬杂差 Stakeout.1987.1080p.AMZN.WEBRip.DDP5.1.x264-AM 12.41GB-6.png 告急钉梢令/窥佬杂差 Stakeout.1987.1080p.AMZN.WEBRip.DDP5.1.x264-AM 12.41GB-7.png






VIP会员免费任意下载本站所有资源!---点击开通
回复

使用道具 举报

懒得打字嘛,点击右侧快捷回复 【右侧内容,后台自定义】
您需要登录后才可以回帖 登录 | 立即注册

本版积分规则

QQ|Archiver|手机版|小黑屋| 中国高清网 |网站地图

GMT+8, 2019-9-21 15:01 , Processed in 0.429404 second(s), 39 queries .

Powered by HDchina X3.4

Copyright 2017-2019©HDchina.All right reserved

返回顶部 联系我们