查看: 8|回复: 0

[剧情片] 扮演上帝的男人 The.Man.Who.Played.God.1932.1080p.AMZN.WEBRip.DD2.0.x264-SbR 7.44GB

[复制链接]

 成长值: 2560

级别:资源管理组

注册时间
2017-10-20
最后登录
2019-9-19
听众
1
收听
0
主题
82921
蓝光币
49296 枚
贡献
7249 点
发表于 7 天前 | 显示全部楼层 |阅读模式
饰演天主的汉子 The.Man.Who.Played.God.1932.1080p.AMZN.WEBRip.DD2.0.x264-SbR 7.44GB-1.png

译  名 饰演天主的汉子
片  名 The Man Who Played God
年  代 1932
产  地 美国
类  别 剧情 / 恋爱
语  言 英语 / 法语
上映日期 1932-02-20
IMDb评分  7.1/10 from 825 users
IMDb链接  http://www.imdb.com/title/tt0023181
豆瓣评分 0/10 from 0 users
豆瓣链接 https://movie.douban.com/subject/1302414/
片  长 80 分钟
导  演 约翰·G·阿道菲 John G. Adolfi
编  剧 古弗尼尔·莫里斯 Gouverneur Morris / Jules Eckert Goodman / 朱利恩·约瑟夫森 Julien Josephson
主  演 乔治·亚理斯 George Arliss
       Violet Heming
       贝蒂·戴维斯 Bette Davis
       安德烈·吕盖 André Luguet
       Louise Closser Hale
       Donald Cook
       伊万·F·辛普森 Ivan F. Simpson
       奥斯卡·阿普菲尔 Oscar Apfel


标  签 George_Arliss | Bette_Davis | BetteDavis | 1932 | 美國 | 美国电影 | 美国 | 华纳兄弟

简  介  

  暂无相关剧情先容
  1. Video
  2. ID                                       : 1
  3. Format                                   : AVC
  4. Format/Info                              : Advanced Video Codec
  5. Format profile                           : <a href="/cdn-cgi/l/email-protection" class="__cf_email__" data-cfemail="0149686669414d35">[email protected]</a>
  6. Format settings                          : CABAC / 4 Ref Frames
  7. Format settings, CABAC                   : Yes
  8. Format settings, Reference frames        : 4 frames
  9. Codec ID                                 : V_MPEG4/ISO/AVC
  10. Duration                                 : 1 h 19 min
  11. Bit rate mode                            : Variable
  12. Bit rate                                 : 13.1 Mb/s
  13. Maximum bit rate                         : 15.0 Mb/s
  14. Width                                    : 1 440 pixels
  15. Height                                   : 1 080 pixels
  16. Display aspect ratio                     : 4:3
  17. Frame rate mode                          : Constant
  18. Frame rate                               : 23.976 (24000/1001) FPS
  19. Color space                              : YUV
  20. Chroma subsampling                       : 4:2:0
  21. Bit depth                                : 8 bits
  22. Scan type                                : Progressive
  23. Bits/(Pixel*Frame)                       : 0.352
  24. Stream size                              : 7.33 GiB (99%)
  25. Writing library                          : x264 core 148 r2623 d5b2374
  26. Encoding settings                        : cabac=1 / ref=4 / deblock=1:-1:-1 / analyse=0x3:0x133 / me=umh / subme=9 / psy=1 / psy_rd=1.00:0.15 / mixed_ref=1 / me_range=24 / chroma_me=1 / trellis=2 / 8x8dct=1 / cqm=0 / deadzone=21,11 / fast_pskip=1 / chroma_qp_offset=-3 / threads=34 / lookahead_threads=5 / sliced_threads=0 / nr=150 / decimate=1 / interlaced=0 / bluray_compat=0 / constrained_intra=0 / bframes=8 / b_pyramid=2 / b_adapt=2 / b_bias=0 / direct=3 / weightb=1 / open_gop=0 / weightp=2 / keyint=120 / keyint_min=61 / scenecut=0 / intra_refresh=0 / rc_lookahead=120 / rc=crf / mbtree=1 / crf=18.0 / qcomp=0.60 / qpmin=0 / qpmax=69 / qpstep=4 / vbv_maxrate=15000 / vbv_bufsize=31250 / crf_max=0.0 / nal_hrd=vbr / filler=0 / ip_ratio=1.40 / aq=3:1.00
  27. Language                                 : English
  28. Default                                  : Yes
  29. Forced                                   : No
  30. Color range                              : Limited
  31. Color primaries                          : BT.709
  32. Transfer characteristics                 : BT.709
  33. Matrix coefficients                      : BT.709

  34. Audio
  35. ID                                       : 2
  36. Format                                   : AC-3
  37. Format/Info                              : Audio Coding 3
  38. Commercial name                          : Dolby Digital
  39. Codec ID                                 : A_AC3
  40. Duration                                 : 1 h 19 min
  41. Bit rate mode                            : Constant
  42. Bit rate                                 : 192 kb/s
  43. Channel(s)                               : 2 channels
  44. Channel layout                           : L R
  45. Sampling rate                            : 48.0 kHz
  46. Frame rate                               : 31.250 FPS (1536 SPF)
  47. Bit depth                                : 16 bits
  48. Compression mode                         : Lossy
  49. Stream size                              : 110 MiB (1%)
  50. Language                                 : English
  51. Service kind                             : Complete Main
  52. Default                                  : Yes
  53. Forced                                   : No

  54. Text #1
  55. ID                                       : 3
  56. Format                                   : UTF-8
  57. Codec ID                                 : S_TEXT/UTF8
  58. Codec ID/Info                            : UTF-8 Plain Text
  59. Duration                                 : 1 h 18 min
  60. Bit rate                                 : 77 b/s
  61. Count of elements                        : 1539
  62. Stream size                              : 44.2 KiB (0%)
  63. Language                                 : English
  64. Default                                  : No
  65. Forced                                   : No

  66. Text #2
  67. ID                                       : 4
  68. Format                                   : UTF-8
  69. Codec ID                                 : S_TEXT/UTF8
  70. Codec ID/Info                            : UTF-8 Plain Text
  71. Duration                                 : 1 h 19 min
  72. Bit rate                                 : 78 b/s
  73. Count of elements                        : 1648
  74. Stream size                              : 45.9 KiB (0%)
  75. Title                                    : SDH
  76. Language                                 : English
  77. Default                                  : No
  78. Forced                                   : No
复制代码

饰演天主的汉子 The.Man.Who.Played.God.1932.1080p.AMZN.WEBRip.DD2.0.x264-SbR 7.44GB-2.png 饰演天主的汉子 The.Man.Who.Played.God.1932.1080p.AMZN.WEBRip.DD2.0.x264-SbR 7.44GB-3.png 饰演天主的汉子 The.Man.Who.Played.God.1932.1080p.AMZN.WEBRip.DD2.0.x264-SbR 7.44GB-4.png 饰演天主的汉子 The.Man.Who.Played.God.1932.1080p.AMZN.WEBRip.DD2.0.x264-SbR 7.44GB-5.png 饰演天主的汉子 The.Man.Who.Played.God.1932.1080p.AMZN.WEBRip.DD2.0.x264-SbR 7.44GB-6.png 饰演天主的汉子 The.Man.Who.Played.God.1932.1080p.AMZN.WEBRip.DD2.0.x264-SbR 7.44GB-7.png






VIP会员免费任意下载本站所有资源!---点击开通
回复

使用道具 举报

懒得打字嘛,点击右侧快捷回复 【右侧内容,后台自定义】
您需要登录后才可以回帖 登录 | 立即注册

本版积分规则

QQ|Archiver|手机版|小黑屋| 中国高清网 |网站地图

GMT+8, 2019-9-20 05:20 , Processed in 0.395022 second(s), 39 queries .

Powered by HDchina X3.4

Copyright 2017-2019©HDchina.All right reserved

返回顶部 联系我们