查看: 8|回复: 0

[剧情片] 征人怒妇 Until.They.Sail.1957.1080p.AMZN.WEBRip.AAC2.0.x264-SbR 6.74GB

[复制链接]

 成长值: 2570

级别:资源管理组

注册时间
2017-10-20
最后登录
2019-9-21
听众
1
收听
0
主题
83026
蓝光币
49759 枚
贡献
7354 点
发表于 2019-9-13 11:16:34 | 显示全部楼层 |阅读模式
征人怒妇 Until.They.Sail.1957.1080p.AMZN.WEBRip.AAC2.0.x264-SbR 6.74GB-1.png

译  名 征人怒妇
片  名 Until They Sail
年  代 1957
产  地 美国
类  别 剧情 / 恋爱 / 历史 / 战争
语  言 英语
上映日期 1957-10-08
IMDb评分  6.5/10 from 1120 users
IMDb链接  http://www.imdb.com/title/tt0051141
豆瓣评分 0/10 from 0 users
豆瓣链接 https://movie.douban.com/subject/1293169/
片  长 94 分钟
导  演 罗伯特·怀斯 Robert Wise
编  剧 罗伯特·安德森 Robert Anderson / 詹姆斯·A·米切纳 James Michener
主  演 简·西蒙斯 Jean Simmons
       琼·芳登 Joan Fontaine
       保罗·纽曼 Paul Newman
       派珀·劳瑞 Piper Laurie
       查尔斯·德拉克 Charles Drake
       桑德拉·狄 Sandra Dee
       沃利·卡斯尔 Wally Cassell
       阿兰·纳皮尔 Alan Napier
       Ralph Votrian
       John Wilder
       蒂格·安德鲁斯 Tige Andrews
       亚当·肯尼迪 Adam Kennedy
       米基·肖夫尼西 Mickey Shaughnessy
       帕特里克·麦克尼 Patrick Macnee
       Nicky Blair
       詹姆斯·道格拉斯 James Douglas
       Phyllis Douglas
       Don Eitner
       富兰克林·法纳姆 Franklyn Farnum
       Jimmy Hayes
       斯图尔特·霍姆斯 Stuart Holmes
       Kendrick Huxham
       迪恩·琼斯 Dean Jones
       肯纳G.肯普 Kenner G. Kemp
       卡尔·M·莱维尼斯 Carl M. Leviness
       Vesey O'Davoren
       希尔达普洛赖特 Hilda Plowright
       Bert Stevens
       戴维·瑟斯比 David Thursby
       James Todd
       Anne Wakefield
       Patrick Waltz
       本·怀特 Ben Wright


标  签 美国 | 琼·芳登 | 1957 | 1950s | 保罗·纽曼 | PaulNewman | JoanFontaine | 罗伯特·怀斯

简  介  

  故事发生在第二次天下大战时代,伊芙琳(桑德拉·狄 Sandra Dee 饰)、安妮(琼·芳登 Joan Fontaine 饰)、迪莉娅(派珀·劳瑞 Piper Laurie 饰)和芭芭拉(简·西蒙斯 Jean Simmons 饰)是情同骨肉的四姐妹。她们所生活的城镇里,一切的汉子都被派上了疆场,这让素性风骚的伊芙琳和莉迪亚感应没法忍受,美军进驻后,两个妙龄少女决议捉住这个千载难逢的好机遇,展现各自的魅力,享用愉悦的男女之情。
  大姐安妮本性稳重而又守旧,一向对粗鲁的美军深感不满,直到有一天,她碰见了一位文质彬彬的美国上尉,两人双双坠入了爱河。与此同时,芭芭拉也相逢了少校哈丁(保罗·纽曼 Paul Newman 饰)。
  1. Video
  2. ID                                       : 1
  3. Format                                   : AVC
  4. Format/Info                              : Advanced Video Codec
  5. Format profile                           : <a href="/cdn-cgi/l/email-protection" class="__cf_email__" data-cfemail="8dc5e4eae5cdc1b9">[email protected]</a>
  6. Format settings                          : CABAC / 4 Ref Frames
  7. Format settings, CABAC                   : Yes
  8. Format settings, Reference frames        : 4 frames
  9. Codec ID                                 : V_MPEG4/ISO/AVC
  10. Duration                                 : 1 h 34 min
  11. Bit rate mode                            : Variable
  12. Bit rate                                 : 10.1 Mb/s
  13. Maximum bit rate                         : 15.0 Mb/s
  14. Width                                    : 1 920 pixels
  15. Height                                   : 800 pixels
  16. Display aspect ratio                     : 2.40:1
  17. Frame rate mode                          : Constant
  18. Frame rate                               : 23.976 (24000/1001) FPS
  19. Color space                              : YUV
  20. Chroma subsampling                       : 4:2:0
  21. Bit depth                                : 8 bits
  22. Scan type                                : Progressive
  23. Bits/(Pixel*Frame)                       : 0.273
  24. Stream size                              : 6.65 GiB (99%)
  25. Writing library                          : x264 core 148 r2623 d5b2374
  26. Encoding settings                        : cabac=1 / ref=4 / deblock=1:-1:-1 / analyse=0x3:0x133 / me=umh / subme=9 / psy=1 / psy_rd=1.00:0.15 / mixed_ref=1 / me_range=24 / chroma_me=1 / trellis=2 / 8x8dct=1 / cqm=0 / deadzone=21,11 / fast_pskip=1 / chroma_qp_offset=-3 / threads=25 / lookahead_threads=4 / sliced_threads=0 / nr=150 / decimate=1 / interlaced=0 / bluray_compat=0 / constrained_intra=0 / bframes=8 / b_pyramid=2 / b_adapt=2 / b_bias=0 / direct=3 / weightb=1 / open_gop=0 / weightp=2 / keyint=120 / keyint_min=61 / scenecut=0 / intra_refresh=0 / rc_lookahead=120 / rc=crf / mbtree=1 / crf=18.0 / qcomp=0.60 / qpmin=0 / qpmax=69 / qpstep=4 / vbv_maxrate=15000 / vbv_bufsize=31250 / crf_max=0.0 / nal_hrd=vbr / filler=0 / ip_ratio=1.40 / aq=3:1.00
  27. Language                                 : English
  28. Default                                  : Yes
  29. Forced                                   : No
  30. Color range                              : Limited
  31. Color primaries                          : BT.709
  32. Transfer characteristics                 : BT.709
  33. Matrix coefficients                      : BT.709

  34. Audio
  35. ID                                       : 2
  36. Format                                   : AAC LC
  37. Format/Info                              : Advanced Audio Codec Low Complexity
  38. Codec ID                                 : A_AAC-2
  39. Duration                                 : 1 h 34 min
  40. Bit rate                                 : 125 kb/s
  41. Channel(s)                               : 2 channels
  42. Channel layout                           : L R
  43. Sampling rate                            : 48.0 kHz
  44. Frame rate                               : 46.875 FPS (1024 SPF)
  45. Compression mode                         : Lossy
  46. Stream size                              : 84.9 MiB (1%)
  47. Language                                 : English
  48. Default                                  : Yes
  49. Forced                                   : No

  50. Text #1
  51. ID                                       : 3
  52. Format                                   : UTF-8
  53. Codec ID                                 : S_TEXT/UTF8
  54. Codec ID/Info                            : UTF-8 Plain Text
  55. Duration                                 : 1 h 34 min
  56. Bit rate                                 : 72 b/s
  57. Count of elements                        : 1506
  58. Stream size                              : 49.9 KiB (0%)
  59. Language                                 : English
  60. Default                                  : No
  61. Forced                                   : No

  62. Text #2
  63. ID                                       : 4
  64. Format                                   : UTF-8
  65. Codec ID                                 : S_TEXT/UTF8
  66. Codec ID/Info                            : UTF-8 Plain Text
  67. Duration                                 : 1 h 34 min
  68. Bit rate                                 : 74 b/s
  69. Count of elements                        : 1571
  70. Stream size                              : 51.5 KiB (0%)
  71. Title                                    : SDH
  72. Language                                 : English
  73. Default                                  : No
  74. Forced                                   : No
复制代码

征人怒妇 Until.They.Sail.1957.1080p.AMZN.WEBRip.AAC2.0.x264-SbR 6.74GB-2.png 征人怒妇 Until.They.Sail.1957.1080p.AMZN.WEBRip.AAC2.0.x264-SbR 6.74GB-3.png 征人怒妇 Until.They.Sail.1957.1080p.AMZN.WEBRip.AAC2.0.x264-SbR 6.74GB-4.png 征人怒妇 Until.They.Sail.1957.1080p.AMZN.WEBRip.AAC2.0.x264-SbR 6.74GB-5.png 111610yvzeo6vbdtv1eyb1.png 征人怒妇 Until.They.Sail.1957.1080p.AMZN.WEBRip.AAC2.0.x264-SbR 6.74GB-7.png






VIP会员免费任意下载本站所有资源!---点击开通
回复

使用道具 举报

懒得打字嘛,点击右侧快捷回复 【右侧内容,后台自定义】
您需要登录后才可以回帖 登录 | 立即注册

本版积分规则

QQ|Archiver|手机版|小黑屋| 中国高清网 |网站地图

GMT+8, 2019-9-21 20:58 , Processed in 0.400880 second(s), 39 queries .

Powered by HDchina X3.4

Copyright 2017-2019©HDchina.All right reserved

返回顶部 联系我们