查看: 9|回复: 0

[剧情片] 尘封往事 Past.Life.2016.SUBBED.1080p.AMZN.WEBRip.DDP5.1.x264-KamiKaze 6.32GB

[复制链接]

 成长值: 2570

级别:资源管理组

注册时间
2017-10-20
最后登录
2019-9-21
听众
1
收听
0
主题
83009
蓝光币
49641 枚
贡献
7337 点
发表于 2019-9-13 11:15:00 | 显示全部楼层 |阅读模式
尘封往事 Past.Life.2016.SUBBED.1080p.AMZN.WEBRip.DDP5.1.x264-KamiKaze 6.32GB-1.png

译  名 尘封往事
片  名 Past Life
年  代 2016
产  地 以色列 / 波兰
类  别 剧情
语  言 英语 / 德语 / 波兰语 / 西伯尔
上映日期 2016-12-01(以色列)
IMDb评分  6.4/10 from 435 users
IMDb链接  http://www.imdb.com/title/tt5787384
豆瓣评分 0/10 from 0 users
豆瓣链接 https://movie.douban.com/subject/26914325/
片  长 109分钟
导  演 阿维·耐舍 Avi Nesher
编  剧 阿维·耐舍 Avi Nesher
主  演 内莉· 塔加尔 Nelly Tagar
       乔伊·列赫尔 Joy Rieger
       多隆·塔夫瑞 Doron Tavory
       叶夫根尼娅·冬妮娜 Evgenia Dodina
       汤姆·阿芙尼 Tom Avni
       拉斐尔·斯塔霍维亚克 Rafael Stachowiak
       穆利·舒尔曼 Muli Shulman


标  签 以色列 | 波兰 | 以色列电影 | 战争 | 2016 | 实在事务改编 | 二战 | 剧情

简  介  

  纳粹大屠杀已成曩昔,但往事并不如烟。两姐妹是以色列幸存者之女,妹妹在柏林被骂是“杀人凶手女儿”,姐姐对独裁生父原本旨抱恨愤,对父亲认可战时在波兰忍辱求存的故事将信将疑,决意清查家属隐藏奥秘。埋于心底回忆遂步解封,却扯开新的伤口淌血,姐姐更将患癌归罪于父亲罪孽的因果报应。 曩昔缭绕,反悔能否获得体谅,以饶恕化解冤仇?
  1. Video
  2. ID                                       : 1
  3. Format                                   : AVC
  4. Format/Info                              : Advanced Video Codec
  5. Format profile                           : <a href="/cdn-cgi/l/email-protection" class="__cf_email__" data-cfemail="074f6e606f474b33">[email protected]</a>
  6. Format settings                          : CABAC / 4 Ref Frames
  7. Format settings, CABAC                   : Yes
  8. Format settings, Reference frames        : 4 frames
  9. Codec ID                                 : V_MPEG4/ISO/AVC
  10. Duration                                 : 1 h 49 min
  11. Bit rate mode                            : Constant
  12. Bit rate                                 : 7 615 kb/s
  13. Nominal bit rate                         : 10 000 kb/s
  14. Width                                    : 1 920 pixels
  15. Height                                   : 872 pixels
  16. Display aspect ratio                     : 2.2:1
  17. Original display aspect ratio            : 2.2:1
  18. Frame rate mode                          : Constant
  19. Frame rate                               : 24.000 FPS
  20. Color space                              : YUV
  21. Chroma subsampling                       : 4:2:0
  22. Bit depth                                : 8 bits
  23. Scan type                                : Progressive
  24. Bits/(Pixel*Frame)                       : 0.190
  25. Stream size                              : 5.83 GiB (92%)
  26. Default                                  : Yes
  27. Forced                                   : No
  28. Color range                              : Limited
  29. Color primaries                          : BT.709
  30. Transfer characteristics                 : BT.709
  31. Matrix coefficients                      : BT.709

  32. Audio
  33. ID                                       : 2
  34. Format                                   : E-AC-3
  35. Format/Info                              : Enhanced AC-3
  36. Commercial name                          : Dolby Digital Plus
  37. Codec ID                                 : A_EAC3
  38. Duration                                 : 1 h 49 min
  39. Bit rate mode                            : Constant
  40. Bit rate                                 : 640 kb/s
  41. Channel(s)                               : 6 channels
  42. Channel layout                           : L R C LFE Ls Rs
  43. Sampling rate                            : 48.0 kHz
  44. Frame rate                               : 31.250 FPS (1536 SPF)
  45. Compression mode                         : Lossy
  46. Stream size                              : 502 MiB (8%)
  47. Service kind                             : Complete Main
  48. Default                                  : Yes
  49. Forced                                   : No

  50. Text
  51. ID                                       : 3
  52. Format                                   : UTF-8
  53. Codec ID                                 : S_TEXT/UTF8
  54. Codec ID/Info                            : UTF-8 Plain Text
  55. Duration                                 : 1 h 45 min
  56. Bit rate                                 : 16 b/s
  57. Count of elements                        : 459
  58. Stream size                              : 12.6 KiB (0%)
  59. Title                                    : SDH
  60. Language                                 : English
  61. Default                                  : Yes
  62. Forced                                   : No
复制代码

尘封往事 Past.Life.2016.SUBBED.1080p.AMZN.WEBRip.DDP5.1.x264-KamiKaze 6.32GB-2.png 尘封往事 Past.Life.2016.SUBBED.1080p.AMZN.WEBRip.DDP5.1.x264-KamiKaze 6.32GB-3.png 尘封往事 Past.Life.2016.SUBBED.1080p.AMZN.WEBRip.DDP5.1.x264-KamiKaze 6.32GB-4.png






VIP会员免费任意下载本站所有资源!---点击开通
回复

使用道具 举报

懒得打字嘛,点击右侧快捷回复 【右侧内容,后台自定义】
您需要登录后才可以回帖 登录 | 立即注册

本版积分规则

QQ|Archiver|手机版|小黑屋| 中国高清网 |网站地图

GMT+8, 2019-9-21 15:25 , Processed in 0.522574 second(s), 39 queries .

Powered by HDchina X3.4

Copyright 2017-2019©HDchina.All right reserved

返回顶部 联系我们