查看: 113|回复: 0

[2160p-WEB] 秘恋 Secret.Obsession.2019.2160p.NF.WEBRip.DDP5.1.Atmos.x264-AJP69 40.13GB

[复制链接]

 成长值: 2570

级别:资源管理组

注册时间
2017-10-20
最后登录
2019-9-21
听众
1
收听
0
主题
83009
蓝光币
49637 枚
贡献
7337 点
发表于 2019-9-13 11:03:59 | 显示全部楼层 |阅读模式
秘恋 Secret.Obsession.2019.2160p.NF.WEBRip.DDP5.1.Atmos.x264-AJP69 40.13GB-1.png

译  名 秘恋
片  名 Secret Obsession
年  代 2019
产  地 美国
类  别 剧情 / 惊悚
语  言 英语
上映日期 2019-07-18(美国)
IMDb评分  6.6/10 from 10 users
IMDb链接  http://www.imdb.com/title/tt9419834
豆瓣评分 0/10 from 0 users
豆瓣链接 https://movie.douban.com/subject/30475715/
片  长 97分钟
导  演 彼得·苏利文 Peter Sullivan
编  剧 Peter Sullivan / Kraig Wenman
主  演 布兰达·宋 Brenda Song
      迈克·沃格尔 Mike Vogel
      丹尼斯·海斯伯特 Dennis Haysbert
      艾什丽·斯科特 Ashley Scott
      保罗·斯隆 Paul Sloan
      丹尼尔·博克 Daniel Booko
      斯科特·皮特 Scott Peat
      迈克尔·帕特里克·麦克吉尔 Michael Patrick McGill
      吉姆·汉纳 Jim Hanna
      席亚拉·卡特 Ciarra Carter
      埃里克·艾特巴里 Eric Etebari
      阿兰·皮特鲁塞泽维斯基 Alan Pietruszewski
      Blair Hickey
      Casey Leach


标  签 惊悚 | 美国电影 | 剧情 | 2019 | 犯罪 | 美国 | 电影 | 我的2019

简  介  

  故事报告珍妮佛尽力走出创伤的同时,却发现自己回到了一个完全陌生且危机四伏的天下。

  1. Video
  2. ID                                       : 1
  3. Format                                   : AVC
  4. Format/Info                              : Advanced Video Codec
  5. Format profile                           : <a href="/cdn-cgi/l/email-protection" class="__cf_email__" data-cfemail="460e2f212e060a736877">[email protected]</a>
  6. Format settings                          : CABAC / 7 Ref Frames
  7. Format settings, CABAC                   : Yes
  8. Format settings, Reference frames        : 7 frames
  9. Codec ID                                 : V_MPEG4/ISO/AVC
  10. Duration                                 : 1 h 37 min
  11. Bit rate                                 : 57.9 Mb/s
  12. Width                                    : 3 840 pixels
  13. Height                                   : 1 632 pixels
  14. Display aspect ratio                     : 2.35:1
  15. Frame rate mode                          : Constant
  16. Frame rate                               : 23.976 (24000/1001) FPS
  17. Color space                              : YUV
  18. Chroma subsampling                       : 4:2:0
  19. Bit depth                                : 8 bits
  20. Scan type                                : Progressive
  21. Bits/(Pixel*Frame)                       : 0.385
  22. Stream size                              : 39.6 GiB (99%)
  23. Writing library                          : x264 core 158 r2984 3759fcb
  24. Encoding settings                        : cabac=1 / ref=7 / deblock=1:-3:3 / analyse=0x3:0x133 / me=umh / subme=10 / psy=1 / psy_rd=1.00:0.00 / mixed_ref=1 / me_range=48 / chroma_me=1 / trellis=2 / 8x8dct=1 / cqm=0 / deadzone=21,11 / fast_pskip=0 / chroma_qp_offset=-2 / threads=18 / lookahead_threads=3 / sliced_threads=0 / nr=0 / decimate=0 / interlaced=0 / bluray_compat=0 / constrained_intra=0 / bframes=8 / b_pyramid=2 / b_adapt=2 / b_bias=0 / direct=3 / weightb=1 / open_gop=0 / weightp=2 / keyint=250 / keyint_min=23 / scenecut=40 / intra_refresh=0 / rc=crf / mbtree=0 / crf=17.0 / qcomp=0.60 / qpmin=0 / qpmax=69 / qpstep=4 / ip_ratio=1.30 / pb_ratio=1.20 / aq=3:0.80
  25. Default                                  : Yes
  26. Forced                                   : No

  27. Audio
  28. ID                                       : 2
  29. Format                                   : E-AC-3 JOC
  30. Format/Info                              : Enhanced AC-3 with Joint Object Coding
  31. Commercial name                          : Dolby Digital Plus with Dolby Atmos
  32. Codec ID                                 : A_EAC3
  33. Duration                                 : 1 h 37 min
  34. Bit rate mode                            : Constant
  35. Bit rate                                 : 768 kb/s
  36. Channel(s)                               : 6 channels
  37. Channel layout                           : L R C LFE Ls Rs
  38. Sampling rate                            : 48.0 kHz
  39. Frame rate                               : 31.250 FPS (1536 SPF)
  40. Compression mode                         : Lossy
  41. Stream size                              : 538 MiB (1%)
  42. Title                                    : English
  43. Language                                 : English
  44. Service kind                             : Complete Main
  45. Default                                  : Yes
  46. Forced                                   : No
  47. Complexity index                         : 16
  48. Number of dynamic objects                : 15
  49. Bed channel count                        : 1 channel
  50. Bed channel configuration                : LFE

  51. Text #1
  52. ID                                       : 3
  53. Format                                   : UTF-8
  54. Codec ID                                 : S_TEXT/UTF8
  55. Codec ID/Info                            : UTF-8 Plain Text
  56. Duration                                 : 1 h 34 min
  57. Bit rate                                 : 53 b/s
  58. Count of elements                        : 1378
  59. Stream size                              : 37.1 KiB (0%)
  60. Title                                    : SDH
  61. Language                                 : English
  62. Default                                  : No
  63. Forced                                   : No

  64. Text #2
  65. ID                                       : 4
  66. Format                                   : UTF-8
  67. Codec ID                                 : S_TEXT/UTF8
  68. Codec ID/Info                            : UTF-8 Plain Text
  69. Duration                                 : 1 h 31 min
  70. Bit rate                                 : 35 b/s
  71. Count of elements                        : 832
  72. Stream size                              : 23.7 KiB (0%)
  73. Language                                 : English
  74. Default                                  : No
  75. Forced                                   : No

  76. Text #3
  77. ID                                       : 5
  78. Format                                   : UTF-8
  79. Codec ID                                 : S_TEXT/UTF8
  80. Codec ID/Info                            : UTF-8 Plain Text
  81. Duration                                 : 1 h 36 min
  82. Bit rate                                 : 61 b/s
  83. Count of elements                        : 899
  84. Stream size                              : 43.7 KiB (0%)
  85. Language                                 : Arabic
  86. Default                                  : No
  87. Forced                                   : No

  88. Text #4
  89. ID                                       : 6
  90. Format                                   : UTF-8
  91. Codec ID                                 : S_TEXT/UTF8
  92. Codec ID/Info                            : UTF-8 Plain Text
  93. Duration                                 : 1 h 36 min
  94. Bit rate                                 : 32 b/s
  95. Count of elements                        : 879
  96. Stream size                              : 22.9 KiB (0%)
  97. Language                                 : Czech
  98. Default                                  : No
  99. Forced                                   : No

  100. Text #5
  101. ID                                       : 7
  102. Format                                   : UTF-8
  103. Codec ID                                 : S_TEXT/UTF8
  104. Codec ID/Info                            : UTF-8 Plain Text
  105. Duration                                 : 1 h 36 min
  106. Bit rate                                 : 32 b/s
  107. Count of elements                        : 894
  108. Stream size                              : 22.8 KiB (0%)
  109. Language                                 : Danish
  110. Default                                  : No
  111. Forced                                   : No

  112. Text #6
  113. ID                                       : 8
  114. Format                                   : UTF-8
  115. Codec ID                                 : S_TEXT/UTF8
  116. Codec ID/Info                            : UTF-8 Plain Text
  117. Duration                                 : 1 h 36 min
  118. Bit rate                                 : 31 b/s
  119. Count of elements                        : 892
  120. Stream size                              : 22.3 KiB (0%)
  121. Language                                 : German
  122. Default                                  : No
  123. Forced                                   : No

  124. Text #7
  125. ID                                       : 9
  126. Format                                   : UTF-8
  127. Codec ID                                 : S_TEXT/UTF8
  128. Codec ID/Info                            : UTF-8 Plain Text
  129. Duration                                 : 1 h 36 min
  130. Bit rate                                 : 57 b/s
  131. Count of elements                        : 896
  132. Stream size                              : 41.0 KiB (0%)
  133. Language                                 : Greek
  134. Default                                  : No
  135. Forced                                   : No

  136. Text #8
  137. ID                                       : 10
  138. Format                                   : UTF-8
  139. Codec ID                                 : S_TEXT/UTF8
  140. Codec ID/Info                            : UTF-8 Plain Text
  141. Duration                                 : 1 h 36 min
  142. Bit rate                                 : 31 b/s
  143. Count of elements                        : 840
  144. Stream size                              : 22.6 KiB (0%)
  145. Language                                 : Spanish
  146. Default                                  : No
  147. Forced                                   : No

  148. Text #9
  149. ID                                       : 11
  150. Format                                   : UTF-8
  151. Codec ID                                 : S_TEXT/UTF8
  152. Codec ID/Info                            : UTF-8 Plain Text
  153. Duration                                 : 1 h 36 min
  154. Bit rate                                 : 32 b/s
  155. Count of elements                        : 874
  156. Stream size                              : 23.3 KiB (0%)
  157. Title                                    : European
  158. Language                                 : Spanish
  159. Default                                  : No
  160. Forced                                   : No

  161. Text #10
  162. ID                                       : 12
  163. Format                                   : UTF-8
  164. Codec ID                                 : S_TEXT/UTF8
  165. Codec ID/Info                            : UTF-8 Plain Text
  166. Duration                                 : 1 h 36 min
  167. Bit rate                                 : 32 b/s
  168. Count of elements                        : 902
  169. Stream size                              : 22.7 KiB (0%)
  170. Language                                 : Finnish
  171. Default                                  : No
  172. Forced                                   : No

  173. Text #11
  174. ID                                       : 13
  175. Format                                   : UTF-8
  176. Codec ID                                 : S_TEXT/UTF8
  177. Codec ID/Info                            : UTF-8 Plain Text
  178. Duration                                 : 1 h 36 min
  179. Bit rate                                 : 31 b/s
  180. Count of elements                        : 832
  181. Stream size                              : 22.3 KiB (0%)
  182. Language                                 : French
  183. Default                                  : No
  184. Forced                                   : No

  185. Text #12
  186. ID                                       : 14
  187. Format                                   : UTF-8
  188. Codec ID                                 : S_TEXT/UTF8
  189. Codec ID/Info                            : UTF-8 Plain Text
  190. Duration                                 : 1 h 34 min
  191. Bit rate                                 : 52 b/s
  192. Count of elements                        : 842
  193. Stream size                              : 36.4 KiB (0%)
  194. Language                                 : Hebrew
  195. Default                                  : No
  196. Forced                                   : No

  197. Text #13
  198. ID                                       : 15
  199. Format                                   : UTF-8
  200. Codec ID                                 : S_TEXT/UTF8
  201. Codec ID/Info                            : UTF-8 Plain Text
  202. Duration                                 : 1 h 36 min
  203. Bit rate                                 : 92 b/s
  204. Count of elements                        : 900
  205. Stream size                              : 65.3 KiB (0%)
  206. Language                                 : Hindi
  207. Default                                  : No
  208. Forced                                   : No

  209. Text #14
  210. ID                                       : 16
  211. Format                                   : UTF-8
  212. Codec ID                                 : S_TEXT/UTF8
  213. Codec ID/Info                            : UTF-8 Plain Text
  214. Duration                                 : 1 h 36 min
  215. Bit rate                                 : 33 b/s
  216. Count of elements                        : 831
  217. Stream size                              : 23.6 KiB (0%)
  218. Language                                 : Hungarian
  219. Default                                  : No
  220. Forced                                   : No

  221. Text #15
  222. ID                                       : 17
  223. Format                                   : UTF-8
  224. Codec ID                                 : S_TEXT/UTF8
  225. Codec ID/Info                            : UTF-8 Plain Text
  226. Duration                                 : 1 h 36 min
  227. Bit rate                                 : 35 b/s
  228. Count of elements                        : 903
  229. Stream size                              : 25.2 KiB (0%)
  230. Language                                 : Indonesian
  231. Default                                  : No
  232. Forced                                   : No

  233. Text #16
  234. ID                                       : 18
  235. Format                                   : UTF-8
  236. Codec ID                                 : S_TEXT/UTF8
  237. Codec ID/Info                            : UTF-8 Plain Text
  238. Duration                                 : 1 h 36 min
  239. Bit rate                                 : 29 b/s
  240. Count of elements                        : 864
  241. Stream size                              : 21.0 KiB (0%)
  242. Language                                 : Italian
  243. Default                                  : No
  244. Forced                                   : No

  245. Text #17
  246. ID                                       : 19
  247. Format                                   : UTF-8
  248. Codec ID                                 : S_TEXT/UTF8
  249. Codec ID/Info                            : UTF-8 Plain Text
  250. Duration                                 : 1 h 34 min
  251. Bit rate                                 : 33 b/s
  252. Count of elements                        : 915
  253. Stream size                              : 23.5 KiB (0%)
  254. Language                                 : Japanese
  255. Default                                  : No
  256. Forced                                   : No

  257. Text #18
  258. ID                                       : 20
  259. Format                                   : UTF-8
  260. Codec ID                                 : S_TEXT/UTF8
  261. Codec ID/Info                            : UTF-8 Plain Text
  262. Duration                                 : 1 h 36 min
  263. Bit rate                                 : 40 b/s
  264. Count of elements                        : 900
  265. Stream size                              : 28.7 KiB (0%)
  266. Language                                 : Korean
  267. Default                                  : No
  268. Forced                                   : No

  269. Text #19
  270. ID                                       : 21
  271. Format                                   : UTF-8
  272. Codec ID                                 : S_TEXT/UTF8
  273. Codec ID/Info                            : UTF-8 Plain Text
  274. Duration                                 : 1 h 36 min
  275. Bit rate                                 : 34 b/s
  276. Count of elements                        : 901
  277. Stream size                              : 24.3 KiB (0%)
  278. Language                                 : Norwegian Bokmal
  279. Default                                  : No
  280. Forced                                   : No

  281. Text #20
  282. ID                                       : 22
  283. Format                                   : UTF-8
  284. Codec ID                                 : S_TEXT/UTF8
  285. Codec ID/Info                            : UTF-8 Plain Text
  286. Duration                                 : 1 h 36 min
  287. Bit rate                                 : 30 b/s
  288. Count of elements                        : 852
  289. Stream size                              : 21.8 KiB (0%)
  290. Language                                 : Dutch
  291. Default                                  : No
  292. Forced                                   : No

  293. Text #21
  294. ID                                       : 23
  295. Format                                   : UTF-8
  296. Codec ID                                 : S_TEXT/UTF8
  297. Codec ID/Info                            : UTF-8 Plain Text
  298. Duration                                 : 1 h 36 min
  299. Bit rate                                 : 27 b/s
  300. Count of elements                        : 818
  301. Stream size                              : 19.4 KiB (0%)
  302. Language                                 : Polish
  303. Default                                  : No
  304. Forced                                   : No

  305. Text #22
  306. ID                                       : 24
  307. Format                                   : UTF-8
  308. Codec ID                                 : S_TEXT/UTF8
  309. Codec ID/Info                            : UTF-8 Plain Text
  310. Duration                                 : 1 h 34 min
  311. Bit rate                                 : 32 b/s
  312. Count of elements                        : 838
  313. Stream size                              : 22.7 KiB (0%)
  314. Language                                 : Portuguese
  315. Default                                  : No
  316. Forced                                   : No

  317. Text #23
  318. ID                                       : 25
  319. Format                                   : UTF-8
  320. Codec ID                                 : S_TEXT/UTF8
  321. Codec ID/Info                            : UTF-8 Plain Text
  322. Duration                                 : 1 h 36 min
  323. Bit rate                                 : 32 b/s
  324. Count of elements                        : 894
  325. Stream size                              : 23.2 KiB (0%)
  326. Title                                    : Brazilian
  327. Language                                 : Portuguese
  328. Default                                  : No
  329. Forced                                   : No

  330. Text #24
  331. ID                                       : 26
  332. Format                                   : UTF-8
  333. Codec ID                                 : S_TEXT/UTF8
  334. Codec ID/Info                            : UTF-8 Plain Text
  335. Duration                                 : 1 h 36 min
  336. Bit rate                                 : 36 b/s
  337. Count of elements                        : 783
  338. Stream size                              : 25.6 KiB (0%)
  339. Language                                 : Romanian
  340. Default                                  : No
  341. Forced                                   : No

  342. Text #25
  343. ID                                       : 27
  344. Format                                   : UTF-8
  345. Codec ID                                 : S_TEXT/UTF8
  346. Codec ID/Info                            : UTF-8 Plain Text
  347. Duration                                 : 1 h 36 min
  348. Bit rate                                 : 53 b/s
  349. Count of elements                        : 873
  350. Stream size                              : 37.7 KiB (0%)
  351. Language                                 : Russian
  352. Default                                  : No
  353. Forced                                   : No

  354. Text #26
  355. ID                                       : 28
  356. Format                                   : UTF-8
  357. Codec ID                                 : S_TEXT/UTF8
  358. Codec ID/Info                            : UTF-8 Plain Text
  359. Duration                                 : 1 h 36 min
  360. Bit rate                                 : 33 b/s
  361. Count of elements                        : 815
  362. Stream size                              : 23.5 KiB (0%)
  363. Language                                 : Swedish
  364. Default                                  : No
  365. Forced                                   : No

  366. Text #27
  367. ID                                       : 29
  368. Format                                   : UTF-8
  369. Codec ID                                 : S_TEXT/UTF8
  370. Codec ID/Info                            : UTF-8 Plain Text
  371. Duration                                 : 1 h 36 min
  372. Bit rate                                 : 93 b/s
  373. Count of elements                        : 908
  374. Stream size                              : 66.5 KiB (0%)
  375. Language                                 : Thai
  376. Default                                  : No
  377. Forced                                   : No

  378. Text #28
  379. ID                                       : 30
  380. Format                                   : UTF-8
  381. Codec ID                                 : S_TEXT/UTF8
  382. Codec ID/Info                            : UTF-8 Plain Text
  383. Duration                                 : 1 h 36 min
  384. Bit rate                                 : 34 b/s
  385. Count of elements                        : 898
  386. Stream size                              : 24.3 KiB (0%)
  387. Language                                 : Turkish
  388. Default                                  : No
  389. Forced                                   : No

  390. Text #29
  391. ID                                       : 31
  392. Format                                   : UTF-8
  393. Codec ID                                 : S_TEXT/UTF8
  394. Codec ID/Info                            : UTF-8 Plain Text
  395. Duration                                 : 1 h 36 min
  396. Bit rate                                 : 54 b/s
  397. Count of elements                        : 904
  398. Stream size                              : 38.9 KiB (0%)
  399. Language                                 : Vietnamese
  400. Default                                  : No
  401. Forced                                   : No

  402. Text #30
  403. ID                                       : 32
  404. Format                                   : UTF-8
  405. Codec ID                                 : S_TEXT/UTF8
  406. Codec ID/Info                            : UTF-8 Plain Text
  407. Duration                                 : 1 h 36 min
  408. Bit rate                                 : 34 b/s
  409. Count of elements                        : 903
  410. Stream size                              : 24.6 KiB (0%)
  411. Title                                    : Simplified
  412. Language                                 : Chinese
  413. Default                                  : No
  414. Forced                                   : No

  415. Text #31
  416. ID                                       : 33
  417. Format                                   : UTF-8
  418. Codec ID                                 : S_TEXT/UTF8
  419. Codec ID/Info                            : UTF-8 Plain Text
  420. Duration                                 : 1 h 36 min
  421. Bit rate                                 : 35 b/s
  422. Count of elements                        : 900
  423. Stream size                              : 25.2 KiB (0%)
  424. Title                                    : Traditional
  425. Language                                 : Chinese
  426. Default                                  : No
  427. Forced                                   : No
复制代码

秘恋 Secret.Obsession.2019.2160p.NF.WEBRip.DDP5.1.Atmos.x264-AJP69 40.13GB-2.png 秘恋 Secret.Obsession.2019.2160p.NF.WEBRip.DDP5.1.Atmos.x264-AJP69 40.13GB-3.png 秘恋 Secret.Obsession.2019.2160p.NF.WEBRip.DDP5.1.Atmos.x264-AJP69 40.13GB-4.png







本帖隐藏的下载地址需要VIP会员才可阅读,您需要升级才可阅读,点击这里升级VIP

VIP会员免费任意下载本站所有资源!---点击开通
回复

使用道具 举报

懒得打字嘛,点击右侧快捷回复 【右侧内容,后台自定义】
您需要登录后才可以回帖 登录 | 立即注册

本版积分规则

QQ|Archiver|手机版|小黑屋| 中国高清网 |网站地图

GMT+8, 2019-9-21 15:13 , Processed in 0.444706 second(s), 39 queries .

Powered by HDchina X3.4

Copyright 2017-2019©HDchina.All right reserved

返回顶部 联系我们