查看: 39|回复: 0

[纪录片] 峡谷回音 Echo.in.the.Canyon.2018.1080p.BluRay.REMUX.AVC.DTS-HD.MA.5.1-FGT 21.08GB

[复制链接]

 成长值: 2570

级别:资源管理组

注册时间
2017-10-20
最后登录
2019-9-21
听众
1
收听
0
主题
83009
蓝光币
49641 枚
贡献
7337 点
发表于 2019-9-13 11:01:31 | 显示全部楼层 |阅读模式
峡谷覆信 Echo.in.the.Canyon.2018.1080p.BluRay.REMUX.AVC.DTS-HD.MA.5.1-FGT 21.08GB-1.png

译  名 峡谷覆信
片  名 Echo In the Canyon
年  代 2018
产  地 美国
类  别 记载片 / 音乐
语  言 英语
上映日期 2018-09-20(洛杉矶电影节) / 2019-05-24(美国)
IMDb评分  7.1/10 from 488 users
IMDb链接  http://www.imdb.com/title/tt8884430
豆瓣评分 0/10 from 0 users
豆瓣链接 https://movie.douban.com/subject/33415890/
片  长 82分钟
导  演 Andrew Slater
编  剧 Eric Barrett / Andrew Slater
主  演 洛乌·阿德勒 Lou Adler
       贝克 Beck
       Justine Bennett
       杰克逊·布朗恩 Jackson Browne
       Jade Castrinos
       大卫·克罗斯比 David Crosby
       雅戈布·迪伦 Jakob Dylan
       诺拉·琼斯 Norah Jones
       罗杰·麦吉恩 Roger McGuinn
       Graham Nash
       Fernando Perdomo
       汤姆·佩蒂 Tom Petty
       米雪·菲利普斯 Michelle Phillips
       猫女魔力 Cat Power
       John Sebastian
       瑞金娜·斯派克特 Regina Spektor
       林哥·斯塔尔 Ringo Starr
       Stephen Stills
       Matt Tecu
       Brian Wilson


标  签 记载片 | 美国 | 2010s

简  介  

  聚焦具有历史意义的洛杉矶Laurel Canyon,这里诞生了一些标志性音乐团体,如飞鸟乐队、海滩男孩、水牛春田以及爸爸妈妈乐队。
  1. Video
  2. ID                                       : 1
  3. Format                                   : AVC
  4. Format/Info                              : Advanced Video Codec
  5. Format profile                           : <a href="/cdn-cgi/l/email-protection" class="__cf_email__" data-cfemail="6a22030d022a265e445b">[email protected]</a>
  6. Format settings                          : CABAC / 4 Ref Frames
  7. Format settings, CABAC                   : Yes
  8. Format settings, Reference frames        : 4 frames
  9. Format settings, GOP                     : M=3, N=12
  10. Codec ID                                 : V_MPEG4/ISO/AVC
  11. Duration                                 : 1 h 22 min
  12. Bit rate mode                            : Variable
  13. Bit rate                                 : 30.2 Mb/s
  14. Maximum bit rate                         : 33.0 Mb/s
  15. Width                                    : 1 920 pixels
  16. Height                                   : 1 080 pixels
  17. Display aspect ratio                     : 16:9
  18. Frame rate mode                          : Constant
  19. Frame rate                               : 23.976 (24000/1001) FPS
  20. Standard                                 : NTSC
  21. Color space                              : YUV
  22. Chroma subsampling                       : 4:2:0
  23. Bit depth                                : 8 bits
  24. Scan type                                : Progressive
  25. Bits/(Pixel*Frame)                       : 0.608
  26. Stream size                              : 17.4 GiB (82%)
  27. Title                                    : Echo.in.the.Canyon.2018.1080p.BluRay.REMUX.AVC.DTS-HD.MA.5.1-FGT
  28. Language                                 : English
  29. Default                                  : No
  30. Forced                                   : No
  31. Color range                              : Limited
  32. Color primaries                          : BT.709
  33. Transfer characteristics                 : BT.709
  34. Matrix coefficients                      : BT.709

  35. Audio #1
  36. ID                                       : 2
  37. Format                                   : DTS XLL
  38. Format/Info                              : Digital Theater Systems
  39. Commercial name                          : DTS-HD Master Audio
  40. Codec ID                                 : A_DTS
  41. Duration                                 : 1 h 22 min
  42. Bit rate mode                            : Variable
  43. Bit rate                                 : 4 082 kb/s
  44. Channel(s)                               : 6 channels
  45. Channel layout                           : C L R Ls Rs LFE
  46. Sampling rate                            : 48.0 kHz
  47. Frame rate                               : 93.750 FPS (512 SPF)
  48. Bit depth                                : 24 bits
  49. Compression mode                         : Lossless
  50. Stream size                              : 2.35 GiB (11%)
  51. Title                                    : Echo.in.the.Canyon.2018.1080p.BluRay.REMUX.AVC.DTS-HD.MA.5.1-FGT
  52. Language                                 : English
  53. Default                                  : Yes
  54. Forced                                   : No

  55. Audio #2
  56. ID                                       : 3
  57. Format                                   : PCM
  58. Format settings                          : Little / Signed
  59. Codec ID                                 : A_PCM/INT/LIT
  60. Duration                                 : 1 h 22 min
  61. Bit rate mode                            : Constant
  62. Bit rate                                 : 2 304 kb/s
  63. Channel(s)                               : 2 channels
  64. Sampling rate                            : 48.0 kHz
  65. Frame rate                               : 30.000 FPS (1600 SPF)
  66. Bit depth                                : 24 bits
  67. Stream size                              : 1.32 GiB (6%)
  68. Title                                    : Echo.in.the.Canyon.2018.Behind.the.Bullet.2019.1080p.BluRay.REMUX.AVC.DTS-HD.MA.5.1-FGT
  69. Language                                 : English
  70. Default                                  : No
  71. Forced                                   : No

  72. Text
  73. ID                                       : 4
  74. Format                                   : PGS
  75. Muxing mode                              : zlib
  76. Codec ID                                 : S_HDMV/PGS
  77. Codec ID/Info                            : Picture based subtitle format used on BDs/HD-DVDs
  78. Duration                                 : 1 h 20 min
  79. Bit rate                                 : 115 kb/s
  80. Count of elements                        : 1914
  81. Stream size                              : 66.4 MiB (0%)
  82. Title                                    : English-PGS
  83. Language                                 : English
  84. Default                                  : Yes
  85. Forced                                   : No

  86. Menu
  87. 00:00:00.000                             : en:Chapter 01
  88. 00:06:40.733                             : en:Chapter 02
  89. 00:14:11.642                             : en:Chapter 03
  90. 00:21:55.355                             : en:Chapter 04
  91. 00:27:13.340                             : en:Chapter 05
  92. 00:33:24.043                             : en:Chapter 06
  93. 00:41:22.021                             : en:Chapter 07
  94. 00:49:34.096                             : en:Chapter 08
  95. 00:56:20.877                             : en:Chapter 09
  96. 01:02:58.775                             : en:Chapter 10
  97. 01:10:00.362                             : en:Chapter 11
  98. 01:19:29.347                             : en:Chapter 12
复制代码

峡谷覆信 Echo.in.the.Canyon.2018.1080p.BluRay.REMUX.AVC.DTS-HD.MA.5.1-FGT 21.08GB-2.png 峡谷覆信 Echo.in.the.Canyon.2018.1080p.BluRay.REMUX.AVC.DTS-HD.MA.5.1-FGT 21.08GB-3.png 峡谷覆信 Echo.in.the.Canyon.2018.1080p.BluRay.REMUX.AVC.DTS-HD.MA.5.1-FGT 21.08GB-4.png






VIP会员免费任意下载本站所有资源!---点击开通
回复

使用道具 举报

懒得打字嘛,点击右侧快捷回复 【右侧内容,后台自定义】
您需要登录后才可以回帖 登录 | 立即注册

本版积分规则

QQ|Archiver|手机版|小黑屋| 中国高清网 |网站地图

GMT+8, 2019-9-21 15:22 , Processed in 0.400585 second(s), 39 queries .

Powered by HDchina X3.4

Copyright 2017-2019©HDchina.All right reserved

返回顶部 联系我们