查看: 33|回复: 0

[动作片] 破茧威龙 Lock.Up.1989.REMASTERED.1080p.BluRay.REMUX.AVC.DTS-HD.MA.5.1-FGT 27.61GB

[复制链接]

 成长值: 2570

级别:资源管理组

注册时间
2017-10-20
最后登录
2019-9-21
听众
1
收听
0
主题
83026
蓝光币
49779 枚
贡献
7354 点
发表于 2019-9-13 10:58:05 | 显示全部楼层 |阅读模式
105849r0n10nqnujub1a6n.png

译  名 破茧威龙 / Condena brutal / 黑狱灾星
片  名 Lock Up
年  代 1989
产  地 美国
类  别 行动 / 惊悚 / 犯罪
语  言 英语
上映日期 1989-08-04(美国)
IMDb评分  6.4/10 from 35447 users
IMDb链接  http://www.imdb.com/title/tt0097770
豆瓣评分 7.0/10 from 1142 users
豆瓣链接 https://movie.douban.com/subject/1299316/
片  长 109分钟
导  演 约翰·弗林 John Flynn
编  剧 Richard Smith / 杰布·斯图尔特 Jeb Stuart / 亨利·罗森鲍姆 Henry Rosenbaum
主  演 西尔维斯特·史泰龙 Sylvester Stallone
       唐纳德·萨瑟兰 Donald Sutherland
       约翰·阿莫斯 John Amos
       索尼·兰哈姆 Sonny Landham
       汤姆·塞兹摩尔 Tom Sizemore
       Frank McRae


标  签 史泰龙 | 行动 | 美国 | 牢狱 | 犯罪 | 1989 | 美国电影 | 剧情

简  介  

  榜样监犯弗兰克?莱昂尼(西尔维斯特?史泰龙 Sylvester Stallone 饰)的刑期还剩半年,他定期可之外出与女友碰头,这个昔日的修车技师看中了一处仓库作为往后的修理部,普通的生活在期待着他。但是某天他忽然被转移到情况卑劣的盖特威牢狱,全因五年前他为了见师父兼养父的最初一面,从牢狱长庄古(唐纳德?萨瑟兰 Donald Sutherland 饰)的治下逃走。弗兰克逃狱成功成为豪杰,而庄古却蒙受惩罚怀恨在心。现在,庄古将弗兰克重新把握,寻机报仇。
  弗兰克遭到了庄古及手下的卑劣看待,但始终哑忍,而且渐渐在牢狱中结交了几个朋友,包括始终想逃狱的囚房万事通、消瘦年轻的“杀手”和狱中修理厂的负责人,死板的生活有了好转,可是庄古始终冷静注视着他,预备给他更大的疾苦……
  1. Video
  2. ID                                       : 1
  3. Format                                   : AVC
  4. Format/Info                              : Advanced Video Codec
  5. Format profile                           : <a href="/cdn-cgi/l/email-protection" class="__cf_email__" data-cfemail="a8e0c1cfc0e8e49c8699">[email protected]</a>
  6. Format settings                          : CABAC / 4 Ref Frames
  7. Format settings, CABAC                   : Yes
  8. Format settings, Reference frames        : 4 frames
  9. Codec ID                                 : V_MPEG4/ISO/AVC
  10. Duration                                 : 1 h 48 min
  11. Bit rate mode                            : Variable
  12. Bit rate                                 : 28.4 Mb/s
  13. Maximum bit rate                         : 36.0 Mb/s
  14. Width                                    : 1 920 pixels
  15. Height                                   : 1 080 pixels
  16. Display aspect ratio                     : 16:9
  17. Frame rate mode                          : Constant
  18. Frame rate                               : 24.000 FPS
  19. Standard                                 : Component
  20. Color space                              : YUV
  21. Chroma subsampling                       : 4:2:0
  22. Bit depth                                : 8 bits
  23. Scan type                                : Progressive
  24. Bits/(Pixel*Frame)                       : 0.572
  25. Stream size                              : 21.6 GiB (78%)
  26. Title                                    : Lock.Up.1989.REMASTERED.1080p.BluRay.REMUX.AVC.DTS-HD.MA.5.1-FGT
  27. Language                                 : English
  28. Default                                  : No
  29. Forced                                   : No
  30. Color range                              : Limited
  31. Color primaries                          : BT.709
  32. Transfer characteristics                 : BT.709
  33. Matrix coefficients                      : BT.709

  34. Audio #1
  35. ID                                       : 2
  36. Format                                   : DTS XLL
  37. Format/Info                              : Digital Theater Systems
  38. Commercial name                          : DTS-HD Master Audio
  39. Codec ID                                 : A_DTS
  40. Duration                                 : 1 h 48 min
  41. Bit rate mode                            : Variable
  42. Bit rate                                 : 3 982 kb/s
  43. Channel(s)                               : 6 channels
  44. Channel layout                           : C L R Ls Rs LFE
  45. Sampling rate                            : 48.0 kHz
  46. Frame rate                               : 93.750 FPS (512 SPF)
  47. Bit depth                                : 24 bits
  48. Compression mode                         : Lossless
  49. Stream size                              : 3.02 GiB (11%)
  50. Title                                    : Lock.Up.1989.REMASTERED.1080p.BluRay.REMUX.AVC.DTS-HD.MA.5.1-FGT
  51. Language                                 : English
  52. Default                                  : Yes
  53. Forced                                   : No

  54. Audio #2
  55. ID                                       : 3
  56. Format                                   : DTS
  57. Format/Info                              : Digital Theater Systems
  58. Codec ID                                 : A_DTS
  59. Duration                                 : 1 h 48 min
  60. Bit rate mode                            : Constant
  61. Bit rate                                 : 1 509 kb/s
  62. Channel(s)                               : 6 channels
  63. Channel layout                           : C L R Ls Rs LFE
  64. Sampling rate                            : 48.0 kHz
  65. Frame rate                               : 93.750 FPS (512 SPF)
  66. Bit depth                                : 24 bits
  67. Compression mode                         : Lossy
  68. Stream size                              : 1.15 GiB (4%)
  69. Title                                    : Lock.Up.1989.REMASTERED.1080p.BluRay.REMUX.AVC.DTS-HD.MA.5.1-FGT
  70. Language                                 : English
  71. Default                                  : No
  72. Forced                                   : No

  73. Audio #3
  74. ID                                       : 4
  75. Format                                   : DTS XLL
  76. Format/Info                              : Digital Theater Systems
  77. Commercial name                          : DTS-HD Master Audio
  78. Codec ID                                 : A_DTS
  79. Duration                                 : 1 h 48 min
  80. Bit rate mode                            : Variable
  81. Bit rate                                 : 1 630 kb/s
  82. Channel(s)                               : 2 channels
  83. Channel layout                           : L R
  84. Sampling rate                            : 48.0 kHz
  85. Frame rate                               : 93.750 FPS (512 SPF)
  86. Bit depth                                : 24 bits
  87. Compression mode                         : Lossless
  88. Stream size                              : 1.24 GiB (4%)
  89. Title                                    : Lock.Up.1989.REMASTERED.1080p.BluRay.REMUX.AVC.DTS-HD.MA.5.1-FGT
  90. Language                                 : French
  91. Default                                  : No
  92. Forced                                   : No

  93. Audio #4
  94. ID                                       : 5
  95. Format                                   : DTS
  96. Format/Info                              : Digital Theater Systems
  97. Codec ID                                 : A_DTS
  98. Duration                                 : 1 h 48 min
  99. Bit rate mode                            : Constant
  100. Bit rate                                 : 768 kb/s
  101. Channel(s)                               : 2 channels
  102. Channel layout                           : L R
  103. Sampling rate                            : 48.0 kHz
  104. Frame rate                               : 93.750 FPS (512 SPF)
  105. Bit depth                                : 24 bits
  106. Compression mode                         : Lossy
  107. Stream size                              : 597 MiB (2%)
  108. Title                                    : Lock.Up.1989.REMASTERED.1080p.BluRay.REMUX.AVC.DTS-HD.MA.5.1-FGT
  109. Language                                 : French
  110. Default                                  : No
  111. Forced                                   : No

  112. Text #1
  113. ID                                       : 6
  114. Format                                   : PGS
  115. Muxing mode                              : zlib
  116. Codec ID                                 : S_HDMV/PGS
  117. Codec ID/Info                            : Picture based subtitle format used on BDs/HD-DVDs
  118. Duration                                 : 1 h 42 min
  119. Bit rate                                 : 24.5 kb/s
  120. Count of elements                        : 2254
  121. Stream size                              : 17.9 MiB (0%)
  122. Title                                    : English-PGS
  123. Language                                 : English
  124. Default                                  : Yes
  125. Forced                                   : No

  126. Text #2
  127. ID                                       : 7
  128. Format                                   : PGS
  129. Muxing mode                              : zlib
  130. Codec ID                                 : S_HDMV/PGS
  131. Codec ID/Info                            : Picture based subtitle format used on BDs/HD-DVDs
  132. Duration                                 : 1 h 44 min
  133. Bit rate                                 : 21.9 kb/s
  134. Count of elements                        : 2242
  135. Stream size                              : 16.3 MiB (0%)
  136. Title                                    : French-FORCED-PGS
  137. Language                                 : French
  138. Default                                  : No
  139. Forced                                   : No

  140. Text #3
  141. ID                                       : 8
  142. Format                                   : PGS
  143. Muxing mode                              : zlib
  144. Codec ID                                 : S_HDMV/PGS
  145. Codec ID/Info                            : Picture based subtitle format used on BDs/HD-DVDs
  146. Duration                                 : 3 s 480 ms
  147. Bit rate                                 : 27.3 kb/s
  148. Count of elements                        : 2
  149. Stream size                              : 11.6 KiB (0%)
  150. Title                                    : French-FORCED-PGS
  151. Language                                 : French
  152. Default                                  : No
  153. Forced                                   : No

  154. Menu
  155. 00:00:00.000                             : en:Chapter 01
  156. 00:08:11.750                             : en:Chapter 02
  157. 00:18:44.458                             : en:Chapter 03
  158. 00:26:06.791                             : en:Chapter 04
  159. 00:32:52.791                             : en:Chapter 05
  160. 00:40:58.291                             : en:Chapter 06
  161. 00:54:47.791                             : en:Chapter 07
  162. 01:06:00.791                             : en:Chapter 08
  163. 01:15:18.958                             : en:Chapter 09
  164. 01:23:07.708                             : en:Chapter 10
  165. 01:36:07.708                             : en:Chapter 11
  166. 01:44:56.916                             : en:Chapter 12
复制代码

破茧威龙 Lock.Up.1989.REMASTERED.1080p.BluRay.REMUX.AVC.DTS-HD.MA.5.1-FGT 27.61GB-2.png 破茧威龙 Lock.Up.1989.REMASTERED.1080p.BluRay.REMUX.AVC.DTS-HD.MA.5.1-FGT 27.61GB-3.png 破茧威龙 Lock.Up.1989.REMASTERED.1080p.BluRay.REMUX.AVC.DTS-HD.MA.5.1-FGT 27.61GB-4.png






VIP会员免费任意下载本站所有资源!---点击开通
回复

使用道具 举报

懒得打字嘛,点击右侧快捷回复 【右侧内容,后台自定义】
您需要登录后才可以回帖 登录 | 立即注册

本版积分规则

QQ|Archiver|手机版|小黑屋| 中国高清网 |网站地图

GMT+8, 2019-9-21 21:44 , Processed in 0.442966 second(s), 39 queries .

Powered by HDchina X3.4

Copyright 2017-2019©HDchina.All right reserved

返回顶部 联系我们