查看: 39|回复: 3

[喜剧片] 夏福特 Shaft.2019.720p.BluRay.x264-GECKOS 4.38GB

[复制链接]

 成长值: 2560

级别:资源管理组

注册时间
2017-10-20
最后登录
2019-9-19
听众
1
收听
0
主题
82921
蓝光币
49296 枚
贡献
7249 点
发表于 7 天前 | 显示全部楼层 |阅读模式
夏福特 Shaft.2019.720p.BluRay.x264-GECKOS 4.38GB-1.png
3 Y" ]7 N( ~. b0 ]# A; n0 H, o2 }' K& y2 v
译  名 夏福特 / Shaft 2 / Son of Shaft / 夏福特之子 / 新杀戮战警(台) / 杀戮战警2 / 辣手刑警 2:委曲父子档(港) / 铁杆神探29 ~, A- R' X5 Q) c( `
片  名 Shaft. s5 G1 i# H8 h& r, y
年  代 2019# y3 B: ^/ l# R2 _
产  地 美国9 E/ n( ~! e" K
类  别 笑剧 / 行动 / 犯罪6 x4 R! W5 w; d5 E  t* b
语  言 英语9 [& ~$ {8 p9 z4 g
上映日期 2019-06-14(美国)' _4 r9 z! w1 r( Z5 y5 |% M6 B
IMDb评分  6.4/10 from 26729 users7 Y5 X" [/ x/ N
IMDb链接  http://www.imdb.com/title/tt4463894- q7 Y* M* x% P( G7 ^
豆瓣评分 6.8/10 from 5224 users1 L+ x# @8 ^' G3 r9 H
豆瓣链接 https://movie.douban.com/subject/27116384/
6 b- z& T0 j0 [/ p: D片  长 111分钟$ `  C: O/ a: N5 u% M1 {. g1 M2 F3 a
导  演 蒂姆·斯托瑞 Tim Story- S; ~5 I; @& m( b
编  剧 肯尼亚·巴里斯 Kenya Barris / 亚历克斯·巴诺 Alex Barnow / 欧内斯特·泰迪曼 Ernest Tidyman  i* e1 c; M6 c/ }
主  演 塞缪尔·杰克逊 Samuel L. Jackson
8 Q8 l9 f7 K2 g9 d3 G       杰西·厄舍 Jessie Usher
  P$ }0 e2 T; F! A       理查德·朗德特里 Richard Roundtree0 a5 u$ C. A9 @$ J
       雷吉娜·赫尔 Regina Hall4 t* ^9 a) u* c7 c6 F! v% C7 k# H
       亚历山德拉·希普 Alexandra Shipp
  C/ S! e9 @* [3 `       马特·劳里亚 Matt Lauria
& m& _* C; g# _8 \; U: o" J       提图斯·维里沃 Titus Welliver1 Z  I$ {7 {( r8 }/ W
       马索·曼恩 Method Man
+ E8 d! H/ c* S" X: H4 _: p       伊萨赫·德·班克尔 Isaach De Bankolé7 d3 T  r! J& A* e
       阿万·乔贾 Avan Jogia' B% }& h4 }3 R! ]/ w9 N
       劳伦·维勒斯 Lauren Vélez
- g% ]7 \  K$ s! l1 _* b       伊恩·卡塞尔伯里 Ian Casselberry
3 m# b+ q0 r0 o/ K+ j- ]       西尔维娅·杰弗里斯 Sylvia Jefferies, D' j& f% }) w3 \2 z
       迈克·顿斯顿 Mike Dunston6 d4 D6 j2 B; I9 }# f& {
       查尔斯·格林 Charles Green
+ u. @; i' u6 O0 t  m       艾德丽安·C·摩尔 Adrienne C. Moore- G' |1 p# A5 A7 K# u0 m
       乔恩·亚瑟 Jon Arthur# e4 O4 o- z8 s# `  h& v
       肖恩·贝克 Sean Baker
8 v; U( H) A* I) l       蒂莫西·卡尔 Timothy Carr
! |4 ^' F. s; a# a3 F% l       大卫·邓斯顿 David Dunston+ c$ H( a+ @/ L: K
       何塞·阿尔弗雷多·费尔南德斯 José Alfredo Fernandez
! m/ |& H! ?: D4 o4 t       安东尼·B·哈里斯 Anthony B. Harris1 H* j2 J) f; Y
       德梅特里·兰德尔 Demetri Landell
9 J/ S2 d% U4 a) ^' m       汉斯·马雷罗 Hans Marrero  ~. T# n# v) X6 G4 u
       布赖希亚·马歇尔 Brayhia Marshall) D8 P8 |2 Z# ^9 p8 A
       肖恩·麦克米伦 Shaun McMillan- P5 u* G1 ?5 o( f* ^
       本杰明·韦弗 Benjamin Weaver( N. X0 T, D+ [/ a( h6 ?1 m
7 g7 S) n$ I+ s5 a! I

- r2 F6 j6 |$ U2 w  s5 p9 ^8 p6 ~标  签 笑剧 | 行动 | 犯罪 | 美国 | 黑人 | 2019 | 黑色诙谐 | 华纳
, z8 y3 A3 F8 v* K' W; {: H( O( m4 F- K* @8 U" R% P
简  介  - \6 i& s; [) T5 s  B$ f

) ?# X  m: A5 s) \  杰西·厄舍加盟[杀戮战警]续作[夏福特之子](Son of Shaft,暂译),塞缪尔·杰克逊同时回归。本片由蒂姆·斯托瑞([佐州自救兄弟])执导,肯尼亚·巴里斯编剧。厄舍饰演杰克逊的儿子,他同时也是一位联邦观察局工作职员,更是收集专家。
* C5 c$ @) c$ N: b4 F
  1. Video, s; K) Z, k* m, D* J
  2. ID                                       : 16 n7 m  p7 S0 b8 h+ b- I0 S7 d
  3. Format                                   : AVC2 T6 [8 U/ Z# C
  4. Format/Info                              : Advanced Video Codec
    5 d/ b5 D  ?* ~- B' v
  5. Format profile                           : <a href="/cdn-cgi/l/email-protection" class="__cf_email__" data-cfemail="e1a9888689a1add5cfd0">[email protected]</a>
    9 ^" ^* n7 M6 D, C  i4 a0 ^9 W; l
  6. Format settings                          : CABAC / 5 Ref Frames
      U% ]9 d- ]# z$ v* U% _) E. l# t
  7. Format settings, CABAC                   : Yes
    0 e3 \" }  W7 e8 e: R! ^  k* B
  8. Format settings, Reference frames        : 5 frames, x4 C( X( m+ [# M
  9. Codec ID                                 : V_MPEG4/ISO/AVC
    4 J- C+ u) M7 w; N
  10. Duration                                 : 1 h 51 min3 y4 `. O' _9 l5 [# v
  11. Bit rate                                 : 4 970 kb/s
    - g$ O$ ~6 L: M8 A6 O
  12. Width                                    : 1 280 pixels
    5 B* l2 a  n8 l2 z' h4 k$ _1 n
  13. Height                                   : 536 pixels3 j/ `& O  Z1 o  s3 g
  14. Display aspect ratio                     : 2.40:1( c1 T7 n% D  ~5 q* w2 [
  15. Frame rate mode                          : Constant9 k0 `; N! l! F" F3 @4 k3 }  w' I
  16. Frame rate                               : 23.976 (24000/1001) FPS
    8 l7 e7 W$ e" X# K( F
  17. Color space                              : YUV
    ! b5 I4 O  I$ U( ^6 U
  18. Chroma subsampling                       : 4:2:0# L- M: i  E. [) o; q3 p
  19. Bit depth                                : 8 bits7 x& `5 H! s; b
  20. Scan type                                : Progressive6 U" h& b( ?4 T" C1 S  S- @% }
  21. Bits/(Pixel*Frame)                       : 0.302
    ( X6 ]1 F1 g% C" Z; I
  22. Stream size                              : 3.87 GiB (89%)
    9 V1 T* ?8 O$ e4 Q
  23. Writing library                          : x264 core 158 r2984 3759fcb9 c& A6 g& ]3 g, C- C
  24. Encoding settings                        : cabac=1 / ref=5 / deblock=1:-3:-3 / analyse=0x3:0x133 / me=umh / subme=8 / psy=1 / psy_rd=1.00:0.00 / mixed_ref=1 / me_range=16 / chroma_me=1 / trellis=1 / 8x8dct=1 / cqm=0 / deadzone=21,11 / fast_pskip=0 / chroma_qp_offset=-2 / threads=17 / lookahead_threads=2 / sliced_threads=0 / nr=0 / decimate=1 / interlaced=0 / bluray_compat=0 / constrained_intra=0 / bframes=3 / b_pyramid=2 / b_adapt=1 / b_bias=0 / direct=3 / weightb=1 / open_gop=0 / weightp=2 / keyint=250 / keyint_min=23 / scenecut=40 / intra_refresh=0 / rc_lookahead=50 / rc=2pass / mbtree=1 / bitrate=4970 / ratetol=1.0 / qcomp=0.60 / qpmin=0 / qpmax=69 / qpstep=4 / cplxblur=20.0 / qblur=0.5 / vbv_maxrate=62500 / vbv_bufsize=78125 / nal_hrd=none / filler=0 / ip_ratio=1.40 / aq=1:1.00% ?5 [% e1 T' z$ f- H
  25. Default                                  : Yes
    3 A1 n3 j3 j) P; C& X
  26. Forced                                   : No4 F0 [* W% {3 m$ C7 r  T$ S: k( ?
  27. ; ~) y9 H8 B& w3 P
  28. Audio+ g1 g2 q. U( z$ V2 u5 e9 w
  29. ID                                       : 2
    * S/ V* P* W5 H/ o+ L0 |" F- b9 \
  30. Format                                   : AC-3) y: _% p9 G% M5 O2 q5 g
  31. Format/Info                              : Audio Coding 3
    ( ]+ ~' h- m% R, w1 r7 o
  32. Commercial name                          : Dolby Digital
    0 k+ L$ N( u; |+ p/ e2 t
  33. Codec ID                                 : A_AC3# B" U3 V0 l$ o
  34. Duration                                 : 1 h 51 min. E6 \% H% _0 ?5 d/ z" T# z8 _
  35. Bit rate mode                            : Constant
    ; @& c7 a5 H# l" Z
  36. Bit rate                                 : 640 kb/s
    1 i5 H9 ~' _# T& t! R. Y) t
  37. Channel(s)                               : 6 channels0 \  o; `$ @& m! \, v1 y8 C6 s% L, A
  38. Channel layout                           : L R C LFE Ls Rs
    ; }1 H! H$ i+ N- I" b9 S1 U5 n
  39. Sampling rate                            : 48.0 kHz
    # d/ v" T' P* }
  40. Frame rate                               : 31.250 FPS (1536 SPF)& v. g5 h: W% v/ i9 I) t
  41. Bit depth                                : 16 bits9 `5 c9 X8 r& m8 ?) U
  42. Compression mode                         : Lossy
    ( v$ n8 {& S% t
  43. Stream size                              : 511 MiB (11%)2 E3 X; Z0 w  k$ f
  44. Language                                 : English
    8 L# f6 b' `( ~2 m( }6 u2 l
  45. Service kind                             : Complete Main
    + W% ^( @7 C" C
  46. Default                                  : Yes5 G. K/ n2 h& Z/ d
  47. Forced                                   : No
    7 K% ^& C. P/ \4 c4 |" ?
  48. 1 g: f2 N) E+ C5 m' Q: o
  49. Menu( V) k& ?4 @4 Y1 K1 r" y( Q$ R6 a
  50. 00:00:00.000                             : en:00:00:00.000/ F' o7 s0 d" q1 w; B
  51. 00:08:02.774                             : en:00:08:02.774
    3 v; e* P2 w. j  W+ q8 P
  52. 00:17:38.557                             : en:00:17:38.557
    4 T: \* i# I; a  H7 P0 f5 {; E, h
  53. 00:27:55.924                             : en:00:27:55.924+ h, p" K: Z- V& [8 [
  54. 00:35:34.466                             : en:00:35:34.466: M; W4 m( E4 g) Z7 a  _+ P; [
  55. 00:41:22.438                             : en:00:41:22.438) {* \% O6 n5 F# ^7 C* ]) A
  56. 00:49:58.996                             : en:00:49:58.996
    & h+ _+ k* q0 z: v( A+ H/ F1 Z7 p
  57. 00:59:05.208                             : en:00:59:05.208
    1 c- [3 s9 S- K% t* z; u
  58. 01:08:15.883                             : en:01:08:15.883! O# e  ?. v$ S7 v! P3 J. Z3 }# s
  59. 01:17:30.563                             : en:01:17:30.5635 r( J7 i6 {) ?# Q: `
  60. 01:23:12.196                             : en:01:23:12.196
    6 _4 U0 S$ Q% i" v3 ~
  61. 01:33:29.270                             : en:01:33:29.270
    - @0 d1 H& R3 o% {+ p/ \! W
  62. 01:43:14.021                             : en:01:43:14.021
    . {" c# c, P/ y/ P0 n( z6 f
  63. 01:46:54.742                             : en:01:46:54.742
复制代码
+ j0 _6 a9 y: Z3 @+ T
夏福特 Shaft.2019.720p.BluRay.x264-GECKOS 4.38GB-2.png * V* @" a) [' K% R" ]6 K* r. i, \: t

* N; W. [: a" ^4 w3 u4 f
: I: I5 x! ]$ p2 [; K* q. G" S8 r5 J" `8 p0 c1 K0 n7 q

  f. J: T6 F# R) d, M2 Z
5 W: `& x/ P* ~4 o- L1 _
! f( ~7 B# [4 d1 G. U. G0 L1 |
VIP会员免费任意下载本站所有资源!---点击开通
回复

使用道具 举报

级别:荣升主角 Lv.5

注册时间
2019-2-3
最后登录
2019-9-19
听众
14
收听
0
主题
0
蓝光币
172 枚
贡献
0 点
发表于 7 天前 | 显示全部楼层
楼主发贴辛苦了,谢谢楼主分享!我觉得中国高清电影网是注册对了!
VIP会员免费任意下载本站所有资源!---点击开通
回复

使用道具 举报

级别:领衔主演 Lv.6

注册时间
2019-4-24
最后登录
2019-9-19
听众
13
收听
0
主题
0
蓝光币
107 枚
贡献
0 点
发表于 3 天前 | 显示全部楼层
楼主发贴辛苦了,谢谢楼主分享!我觉得中国高清电影网是注册对了!
VIP会员免费任意下载本站所有资源!---点击开通
回复

使用道具 举报

级别:普通观众 Lv.2

注册时间
2019-4-28
最后登录
2019-9-18
听众
10
收听
0
主题
0
蓝光币
110 枚
贡献
0 点
发表于 前天 19:59 | 显示全部楼层
楼主发贴辛苦了,谢谢楼主分享!我觉得中国高清电影网是注册对了!
VIP会员免费任意下载本站所有资源!---点击开通
回复

使用道具 举报

懒得打字嘛,点击右侧快捷回复 【右侧内容,后台自定义】
您需要登录后才可以回帖 登录 | 立即注册

本版积分规则

QQ|Archiver|手机版|小黑屋| 中国高清网 |网站地图

GMT+8, 2019-9-20 04:57 , Processed in 0.402345 second(s), 39 queries .

Powered by HDchina X3.4

Copyright 2017-2019©HDchina.All right reserved

返回顶部 联系我们