查看: 121|回复: 3

[喜剧片] 夏福特 Shaft.2019.720p.BluRay.x264-GECKOS 4.38GB

[复制链接]

 成长值: 3800

级别:资源管理组

注册时间
2017-10-20
最后登录
2020-1-17
听众
1
收听
0
主题
90421
蓝光币
82549 枚
贡献
14783 点
发表于 2019-9-13 10:57:02 | 显示全部楼层 |阅读模式
夏福特 Shaft.2019.720p.BluRay.x264-GECKOS 4.38GB-1.png % t8 p5 n7 S' S3 ?* H6 w- h

' U: }7 }2 Z: Q7 f0 `5 I$ }译  名 夏福特 / Shaft 2 / Son of Shaft / 夏福特之子 / 新杀戮战警(台) / 杀戮战警2 / 辣手刑警 2:委曲父子档(港) / 铁杆神探2
8 x% a- C; I: u" \; Y1 T" }: I片  名 Shaft
0 e5 S# T2 r3 e; S8 p7 m, B; O年  代 2019! S4 _+ g: M) d( n# Y! Z3 G. Z8 v' i( _
产  地 美国
& ]0 f4 j( _$ r- ~! @类  别 笑剧 / 行动 / 犯罪
" o9 P0 K; F$ Z0 M- v7 G# v语  言 英语
' F5 X& s  k! K6 v- Q6 V9 ~$ c上映日期 2019-06-14(美国)
& M- o" w8 \2 z0 c( sIMDb评分  6.4/10 from 26729 users
2 J& `' m: u6 T: l+ s2 vIMDb链接  http://www.imdb.com/title/tt4463894
) N: f! N% E/ @0 \1 i) k& F豆瓣评分 6.8/10 from 5224 users
" I$ J7 W8 P: O2 W* f豆瓣链接 https://movie.douban.com/subject/27116384// ?  g2 }! w4 i' V* H
片  长 111分钟
! Q8 W5 [, ~/ o* F* x- o导  演 蒂姆·斯托瑞 Tim Story
& U; j9 J; A9 O/ T0 W" B* e编  剧 肯尼亚·巴里斯 Kenya Barris / 亚历克斯·巴诺 Alex Barnow / 欧内斯特·泰迪曼 Ernest Tidyman8 ]/ I  k" H) U! `5 g/ P2 O+ {( D
主  演 塞缪尔·杰克逊 Samuel L. Jackson5 f+ |$ W6 l4 V# r3 U  v5 k: f
       杰西·厄舍 Jessie Usher
2 f3 Y$ b: f5 a( y       理查德·朗德特里 Richard Roundtree
4 f9 [; c8 p4 f6 a7 q( ]       雷吉娜·赫尔 Regina Hall0 m& Y5 k* o& D, w
       亚历山德拉·希普 Alexandra Shipp$ ?3 q4 }' w; }  L( P
       马特·劳里亚 Matt Lauria$ ?: ?8 M& }$ i5 T3 u* }, a# P9 k
       提图斯·维里沃 Titus Welliver
$ n' }8 M( H8 W, u# }       马索·曼恩 Method Man- ]6 v: F5 f- \/ F
       伊萨赫·德·班克尔 Isaach De Bankolé
7 @" F# V) I9 c' R# i) D       阿万·乔贾 Avan Jogia4 s. y1 K' e0 v; v5 e9 B+ P) E  }
       劳伦·维勒斯 Lauren Vélez3 w( p0 X; v# d% j/ c. f
       伊恩·卡塞尔伯里 Ian Casselberry' b  \9 w- x0 V  P! Z( k
       西尔维娅·杰弗里斯 Sylvia Jefferies  O8 I3 A* s- L) @9 B
       迈克·顿斯顿 Mike Dunston
. P9 p, u3 G" N. ~$ b       查尔斯·格林 Charles Green
! U0 b) \% M9 m! P; X/ B5 Q       艾德丽安·C·摩尔 Adrienne C. Moore
4 f' q. B7 |/ E& w; ?2 I       乔恩·亚瑟 Jon Arthur
! [$ ?  |4 S+ d1 A. P       肖恩·贝克 Sean Baker
# a& w2 D5 f8 u2 V9 B+ p  [       蒂莫西·卡尔 Timothy Carr
$ o" J! S9 K& }- _9 ?% n       大卫·邓斯顿 David Dunston* @8 z- _) [1 F2 y( ~- I
       何塞·阿尔弗雷多·费尔南德斯 José Alfredo Fernandez# M- E- c* W+ _1 c5 G, M6 X1 {* U
       安东尼·B·哈里斯 Anthony B. Harris6 B6 q" E' m7 v* ^
       德梅特里·兰德尔 Demetri Landell: f. r4 x* h6 J, l7 M
       汉斯·马雷罗 Hans Marrero/ v+ A9 p" }8 w  k! B5 v
       布赖希亚·马歇尔 Brayhia Marshall
! @, L' y' O. c: h2 g       肖恩·麦克米伦 Shaun McMillan4 H) S  ]- v- s- D! K, K  ~' z
       本杰明·韦弗 Benjamin Weaver$ E$ t6 j. e: W7 @. v' Q
. L/ o& e2 X7 a2 [  l$ J# q
7 A% P+ d+ I( u' E2 P" U
标  签 笑剧 | 行动 | 犯罪 | 美国 | 黑人 | 2019 | 黑色诙谐 | 华纳) X/ R0 Z2 a& N$ W. |: s) \
# x$ y  z4 B5 K4 |7 ^
简  介  ; Y3 V0 M7 i- g. t

: u* O, D/ v) z2 u  杰西·厄舍加盟[杀戮战警]续作[夏福特之子](Son of Shaft,暂译),塞缪尔·杰克逊同时回归。本片由蒂姆·斯托瑞([佐州自救兄弟])执导,肯尼亚·巴里斯编剧。厄舍饰演杰克逊的儿子,他同时也是一位联邦观察局工作职员,更是收集专家。& x$ s( ^% o9 t5 S! P
  1. Video  p% T- k( R( m$ h8 ]) ~* Q
  2. ID                                       : 1. L4 J5 t- r( a; |. p
  3. Format                                   : AVC
    4 M* M8 X( [" K5 Z
  4. Format/Info                              : Advanced Video Codec
    6 [+ @4 X& ^: U
  5. Format profile                           : <a href="/cdn-cgi/l/email-protection" class="__cf_email__" data-cfemail="e1a9888689a1add5cfd0">[email protected]</a>
    1 q" c# `* W7 G% o. X- t3 v2 r( U
  6. Format settings                          : CABAC / 5 Ref Frames
    ! b" `2 J& m' Q5 e
  7. Format settings, CABAC                   : Yes! x( L; M- T$ W# h% A
  8. Format settings, Reference frames        : 5 frames
      t- }5 J& G7 G& h' x
  9. Codec ID                                 : V_MPEG4/ISO/AVC
    * A6 w8 ]6 g$ y4 g, x7 i) R
  10. Duration                                 : 1 h 51 min- X% l( U# G. Z3 t
  11. Bit rate                                 : 4 970 kb/s
    # J: {) Z( W; x9 P6 H" ]: Z
  12. Width                                    : 1 280 pixels
    9 j' ^5 [( w! G: Z: ~
  13. Height                                   : 536 pixels7 [' q3 L, U8 p1 c  K5 \
  14. Display aspect ratio                     : 2.40:1
    : @( m3 Y, |) g+ p( z# ~, k
  15. Frame rate mode                          : Constant" l# }& j9 o) M' G+ \6 E
  16. Frame rate                               : 23.976 (24000/1001) FPS" i% Z$ @' B; U8 {: T6 Q
  17. Color space                              : YUV3 Y2 a: L7 [& D# ~% F/ N
  18. Chroma subsampling                       : 4:2:0/ S; d( [/ r3 e# v
  19. Bit depth                                : 8 bits) m  R& p0 Y/ V. M! Y
  20. Scan type                                : Progressive& p$ x$ f  Q  g% E( `  K2 q
  21. Bits/(Pixel*Frame)                       : 0.302$ f) }$ l# y7 J; w7 e& R& e) u
  22. Stream size                              : 3.87 GiB (89%)7 K4 y& c) }; ]# `) @: H4 L! {
  23. Writing library                          : x264 core 158 r2984 3759fcb
    - `# b9 @3 s, S  A5 ?/ B
  24. Encoding settings                        : cabac=1 / ref=5 / deblock=1:-3:-3 / analyse=0x3:0x133 / me=umh / subme=8 / psy=1 / psy_rd=1.00:0.00 / mixed_ref=1 / me_range=16 / chroma_me=1 / trellis=1 / 8x8dct=1 / cqm=0 / deadzone=21,11 / fast_pskip=0 / chroma_qp_offset=-2 / threads=17 / lookahead_threads=2 / sliced_threads=0 / nr=0 / decimate=1 / interlaced=0 / bluray_compat=0 / constrained_intra=0 / bframes=3 / b_pyramid=2 / b_adapt=1 / b_bias=0 / direct=3 / weightb=1 / open_gop=0 / weightp=2 / keyint=250 / keyint_min=23 / scenecut=40 / intra_refresh=0 / rc_lookahead=50 / rc=2pass / mbtree=1 / bitrate=4970 / ratetol=1.0 / qcomp=0.60 / qpmin=0 / qpmax=69 / qpstep=4 / cplxblur=20.0 / qblur=0.5 / vbv_maxrate=62500 / vbv_bufsize=78125 / nal_hrd=none / filler=0 / ip_ratio=1.40 / aq=1:1.000 L+ K9 B, u; C4 K
  25. Default                                  : Yes0 X& I: t4 p  e( `  n5 l  ?
  26. Forced                                   : No2 N7 M( N9 G9 _  q
  27. + j& [% @9 J- d9 _( C
  28. Audio
    - Y8 O2 v7 q) h- G- N
  29. ID                                       : 2" f' K1 U8 ?# t
  30. Format                                   : AC-3. X" R5 r6 J0 I% B! ^& j
  31. Format/Info                              : Audio Coding 3: v4 b' ^8 X, `8 J
  32. Commercial name                          : Dolby Digital3 D) t% c* w# g% W/ t. c' K
  33. Codec ID                                 : A_AC3& q* B: b" w! ^6 @/ |- \
  34. Duration                                 : 1 h 51 min( i4 Y3 z0 o3 ?, f- h
  35. Bit rate mode                            : Constant- R- G& n- O1 r- b
  36. Bit rate                                 : 640 kb/s
    $ ?- x6 V$ e+ z6 r  E
  37. Channel(s)                               : 6 channels: z0 z& ]( E" E: X# K  c
  38. Channel layout                           : L R C LFE Ls Rs* I7 G) J1 q3 j& o8 i
  39. Sampling rate                            : 48.0 kHz, T( Z7 C- L2 s9 l% W
  40. Frame rate                               : 31.250 FPS (1536 SPF)
    $ C- h% J+ Y7 }0 o& B/ Z& r8 a
  41. Bit depth                                : 16 bits
    9 i3 D6 c( ~2 v7 C( q3 w& ?. O
  42. Compression mode                         : Lossy' h* ]1 V2 }1 [0 J1 [
  43. Stream size                              : 511 MiB (11%)
    3 i) a. A& Y, S+ t2 j
  44. Language                                 : English
    1 h& P! q' V& G
  45. Service kind                             : Complete Main
    & p. M. C2 a  s& V" S  j9 E
  46. Default                                  : Yes
    ' b5 y1 k3 b; Q  O* {
  47. Forced                                   : No1 ?) r% J1 ~& L1 ?; F+ u

  48. % U% @; _9 x7 |# p5 q, _' y
  49. Menu9 a1 F. {; I% q; ^# ^
  50. 00:00:00.000                             : en:00:00:00.000) k; h9 |( `$ A' q
  51. 00:08:02.774                             : en:00:08:02.7744 ~8 J5 T/ l. q8 S4 [
  52. 00:17:38.557                             : en:00:17:38.557
    : j8 W8 l3 ?: \2 d
  53. 00:27:55.924                             : en:00:27:55.924' a; B' f0 [7 k
  54. 00:35:34.466                             : en:00:35:34.466
    ' r! o3 E+ ^5 c  k
  55. 00:41:22.438                             : en:00:41:22.438
    . y2 t8 V; S, B" B
  56. 00:49:58.996                             : en:00:49:58.9960 A8 O4 J+ f, O) G9 f6 r
  57. 00:59:05.208                             : en:00:59:05.208# `0 \5 y, r( ^& W5 A7 |) w
  58. 01:08:15.883                             : en:01:08:15.883
    & L  r, I- K0 b4 V2 [6 t" ^
  59. 01:17:30.563                             : en:01:17:30.563: r6 G* E. c( I6 D' n
  60. 01:23:12.196                             : en:01:23:12.196! ^+ C& m' q0 q8 D0 m! x4 P
  61. 01:33:29.270                             : en:01:33:29.270  x. s- E5 B) O9 a( F
  62. 01:43:14.021                             : en:01:43:14.021
    * M7 A) z& M- N; ]3 b
  63. 01:46:54.742                             : en:01:46:54.742
复制代码
# v- \# W3 |" P! r# x/ C4 {
夏福特 Shaft.2019.720p.BluRay.x264-GECKOS 4.38GB-2.png 6 x' X* r; d0 l2 R, Q- e2 W+ k
% H" m% O  ?( x+ [
( d2 U5 S% v7 H7 c8 p
, K% s# h# w4 c2 V, f- U
8 _7 a6 q5 y( l; ^" w

8 I6 }0 q+ c! u# ]- n* J
, _6 h' a) i) n4 E6 l8 v
VIP会员免费任意下载本站所有资源!---点击开通
回复

使用道具 举报

级别:荣升主角 Lv.5

注册时间
2019-2-3
最后登录
2020-1-17
听众
15
收听
0
主题
0
蓝光币
250 枚
贡献
0 点
发表于 2019-9-13 12:25:51 | 显示全部楼层
楼主发贴辛苦了,谢谢楼主分享!我觉得中国高清电影网是注册对了!
VIP会员免费任意下载本站所有资源!---点击开通
回复

使用道具 举报

级别:一线明星 Lv.8

注册时间
2019-4-24
最后登录
2020-1-17
听众
14
收听
0
主题
0
蓝光币
255 枚
贡献
0 点
发表于 2019-9-17 08:44:00 | 显示全部楼层
楼主发贴辛苦了,谢谢楼主分享!我觉得中国高清电影网是注册对了!
VIP会员免费任意下载本站所有资源!---点击开通
回复

使用道具 举报

级别:普通观众 Lv.2

注册时间
2019-4-28
最后登录
2020-1-1
听众
11
收听
0
主题
0
蓝光币
116 枚
贡献
0 点
发表于 2019-9-18 19:59:49 | 显示全部楼层
楼主发贴辛苦了,谢谢楼主分享!我觉得中国高清电影网是注册对了!
VIP会员免费任意下载本站所有资源!---点击开通
回复

使用道具 举报

懒得打字嘛,点击右侧快捷回复 【右侧内容,后台自定义】
您需要登录后才可以回帖 登录 | 立即注册

本版积分规则

Archiver|手机版|小黑屋| 中国高清网 |网站地图

GMT+8, 2020-1-18 05:31 , Processed in 0.263030 second(s), 37 queries .

Powered by HDchina X3.4

Copyright 2017-2019©HDchina.All right reserved

返回顶部 联系我们