查看: 57|回复: 0

[惊悚片] 和谐 Harmony.2018.1080p.BluRay.x264-BRMP 7.94GB

[复制链接]

 成长值: 2560

级别:资源管理组

注册时间
2017-10-20
最后登录
2019-9-19
听众
1
收听
0
主题
82921
蓝光币
49296 枚
贡献
7249 点
发表于 7 天前 | 显示全部楼层 |阅读模式
和谐 Harmony.2018.1080p.BluRay.x264-BRMP 7.94GB-1.png

译  名 和谐
片  名 Harmony
年  代 2018
产  地 澳大利亚
类  别 惊悚 / 奇异
语  言 英语
上映日期 2018-10-04(澳大利亚)
IMDb评分  5.3/10 from 452 users
IMDb链接  http://www.imdb.com/title/tt5583554
豆瓣评分 0/10 from 0 users
豆瓣链接 https://movie.douban.com/subject/34462401/
导  演 Corey Pearson
编  剧 Corey Pearson
主  演 杰奎琳·麦根斯 Jacqueline McKenzie
       埃蒙·法伦 Eamon Farren
       Tessa James
       Jerome Meyer
       Antoniette Iesue
       Jordan Cowan
       Salvatore Coco
       Monica Sayers
       Ines English


简  介  

  Born with an energetic power to absorb fear from others, a young woman must find love to balance the fears of her own and fight an ever growing storm of negative energy.
  1. Video
  2. ID                                       : 1
  3. Format                                   : AVC
  4. Format/Info                              : Advanced Video Codec
  5. Format profile                           : <a href="/cdn-cgi/l/email-protection" class="__cf_email__" data-cfemail="763e1f111e363a425847">[email protected]</a>
  6. Format settings                          : CABAC / 5 Ref Frames
  7. Format settings, CABAC                   : Yes
  8. Format settings, Reference frames        : 5 frames
  9. Codec ID                                 : V_MPEG4/ISO/AVC
  10. Duration                                 : 1 h 30 min
  11. Bit rate                                 : 11.1 Mb/s
  12. Width                                    : 1 920 pixels
  13. Height                                   : 808 pixels
  14. Display aspect ratio                     : 2.40:1
  15. Frame rate mode                          : Constant
  16. Frame rate                               : 23.976 (24000/1001) FPS
  17. Color space                              : YUV
  18. Chroma subsampling                       : 4:2:0
  19. Bit depth                                : 8 bits
  20. Scan type                                : Progressive
  21. Bits/(Pixel*Frame)                       : 0.299
  22. Stream size                              : 6.98 GiB (88%)
  23. Writing library                          : x264 core 157 r2969 d4099dd
  24. Encoding settings                        : cabac=1 / ref=5 / deblock=1:0:0 / analyse=0x3:0x133 / me=umh / subme=7 / psy=1 / psy_rd=1.00:0.00 / mixed_ref=1 / me_range=16 / chroma_me=1 / trellis=1 / 8x8dct=1 / cqm=0 / deadzone=21,11 / fast_pskip=0 / chroma_qp_offset=-2 / threads=18 / lookahead_threads=3 / sliced_threads=0 / nr=0 / decimate=1 / interlaced=0 / bluray_compat=0 / constrained_intra=0 / bframes=3 / b_pyramid=2 / b_adapt=1 / b_bias=0 / direct=1 / weightb=1 / open_gop=0 / weightp=2 / keyint=240 / keyint_min=23 / scenecut=40 / intra_refresh=0 / rc_lookahead=40 / rc=2pass / mbtree=1 / bitrate=11109 / ratetol=1.0 / qcomp=0.60 / qpmin=10 / qpmax=51 / qpstep=4 / cplxblur=20.0 / qblur=0.5 / ip_ratio=1.40 / aq=1:1.00
  25. Default                                  : Yes
  26. Forced                                   : No

  27. Audio
  28. ID                                       : 2
  29. Format                                   : DTS
  30. Format/Info                              : Digital Theater Systems
  31. Codec ID                                 : A_DTS
  32. Duration                                 : 1 h 30 min
  33. Bit rate mode                            : Constant
  34. Bit rate                                 : 1 509 kb/s
  35. Channel(s)                               : 6 channels
  36. Channel layout                           : C L R Ls Rs LFE
  37. Sampling rate                            : 48.0 kHz
  38. Frame rate                               : 93.750 FPS (512 SPF)
  39. Bit depth                                : 24 bits
  40. Compression mode                         : Lossy
  41. Stream size                              : 973 MiB (12%)
  42. Language                                 : English
  43. Default                                  : Yes
  44. Forced                                   : No

  45. Menu
  46. 00:00:00.000                             : en:Chapter 01
  47. 00:09:46.336                             : en:Chapter 02
  48. 00:19:59.198                             : en:Chapter 03
  49. 00:30:10.392                             : en:Chapter 04
  50. 00:41:53.886                             : en:Chapter 05
  51. 00:50:18.933                             : en:Chapter 06
  52. 00:59:26.438                             : en:Chapter 07
  53. 01:10:15.753                             : en:Chapter 08
  54. 01:19:44.029                             : en:Chapter 09
  55. 01:27:26.825                             : en:Chapter 10
复制代码

和谐 Harmony.2018.1080p.BluRay.x264-BRMP 7.94GB-2.png






VIP会员免费任意下载本站所有资源!---点击开通
回复

使用道具 举报

懒得打字嘛,点击右侧快捷回复 【右侧内容,后台自定义】
您需要登录后才可以回帖 登录 | 立即注册

本版积分规则

QQ|Archiver|手机版|小黑屋| 中国高清网 |网站地图

GMT+8, 2019-9-20 05:14 , Processed in 0.449455 second(s), 39 queries .

Powered by HDchina X3.4

Copyright 2017-2019©HDchina.All right reserved

返回顶部 联系我们