查看: 19|回复: 1

[犯罪片] 意图2:浮现 The.Intent.2.The.Come.Up.2018.LIMITED.720p.BluRay.x264-SNOW 4.37GB

[复制链接]

 成长值: 2570

级别:资源管理组

注册时间
2017-10-20
最后登录
2019-9-21
听众
1
收听
0
主题
83026
蓝光币
49759 枚
贡献
7354 点
发表于 2019-9-13 10:53:10 | 显示全部楼层 |阅读模式
意图2:显现 The.Intent.2.The.Come.Up.2018.LIMITED.720p.BluRay.x264-SNOW 4.37GB-1.png
: [6 ?$ B/ E- Y" z! }0 a$ e" `  s$ G% p+ e) I+ z+ G
译  名 意图2:显现8 k2 ?, o, n0 r* V( _# c! e$ e
片  名 The Intent 2: The Come Up
2 h5 p7 G( v+ T年  代 2018
+ ^/ j6 R8 }; g8 e& u6 s产  地 英国
  M5 `9 b+ j! D% ~0 U类  别 犯罪
+ d$ Q: H( n/ Y& z) W7 m* Z语  言 英语5 |1 `% ^: Z  k# K- O
上映日期 2018-09-21(英国)+ y4 V) G/ q  X1 m8 O% c% f3 ~
IMDb评分  3.7/10 from 282 users9 F1 K, p& f' i% K+ z/ r3 u
IMDb链接  http://www.imdb.com/title/tt76139968 L$ _6 E# K& c% }( S
豆瓣评分 0/10 from 0 users0 c  [+ R7 [5 @: ~. H0 E; [8 O# z  q
豆瓣链接 https://movie.douban.com/subject/30430663/5 P. M3 v/ ~2 F* L
片  长 103分钟% L, R( g; K& X$ ^
导  演 Femi Oyeniran / Nicky Slimting Walker6 r8 u1 t0 W) `6 e
编  剧 Femi Oyeniran / Nicky Slimting Walker
  @" o7 I* `; I: @6 V5 Q3 `3 Q) X主  演 Adam Deacon
4 m5 a, g; s' M) [( K/ B       Selva Rasalingam# t/ I0 N8 B7 s/ X! A) k7 c7 k5 y
       凯伦·布莱森 Karen Bryson9 t+ W1 `" l% d) @0 _* f6 ~$ P
       Ashley Chin6 f; I8 J, _; }8 o$ F+ L7 ^  ?
       Femi Oyeniran
! G# n6 d* V4 j. k; F  d" ?; b       Joanne Matthews& m3 |1 j- ^- t( p: I' \
       Dylan Duffus
! f% L& A5 x& S3 h) O. y       Sarah Akokhia
) D4 Z# _4 m) D; K' F1 g  G       Jay Brown
  ^+ g' X: r" g. ?       Shone Romulus
8 u0 b3 ^. N, l! y1 @       Todd Von Joel
  p% e" C" A; x) u       Waleed Akhtar9 F5 D( e1 J4 V+ j" v9 h
       Nicky Slimting Walker
' x/ d+ l1 r  N* P7 E9 v       Russell Barnett  n1 B) M/ F# a
       Nathan Hector
2 e+ d! E$ C& _* q0 e
2 p- {7 ?2 ]9 B: H
2 J9 o6 ~/ `- }. ?$ t$ H标  签 犯罪 | 烂片 | 枪战 | 行动4 t, D3 Q$ u; L- g1 Z9 j

3 `. N/ i+ k. `; Y0 Y2 n: _  [, T' u简  介  4 T7 A4 k/ O9 ]- @) o

! E4 V4 x' ]; l+ ^* F4 P  Prequel the the successful 2016 film 'The Intent'
2 H; \5 L8 C: X% z8 `& e5 a, H2 z
  1. Video$ \% I6 U0 ~; \( Q" j$ _! F0 k
  2. ID                                       : 1
    4 [+ S* B. p/ v7 t
  3. Format                                   : AVC# T3 V0 y  U5 m) D1 Q2 P: j
  4. Format/Info                              : Advanced Video Codec! J  G- O* E' G& m: Z, p
  5. Format profile                           : <a href="/cdn-cgi/l/email-protection" class="__cf_email__" data-cfemail="165e7f717e565a223827">[email protected]</a>
    6 Y6 l. L1 T8 ]6 |
  6. Format settings                          : CABAC / 5 Ref Frames
    / a' O& b  w/ @" @4 Y( }: s" W7 b, L
  7. Format settings, CABAC                   : Yes+ x. `5 g' K! k) I7 H* J
  8. Format settings, Reference frames        : 5 frames5 y7 c+ A2 ]0 [- G0 n& H
  9. Codec ID                                 : V_MPEG4/ISO/AVC3 F! c1 V4 M: b9 ~5 F4 d9 W
  10. Duration                                 : 1 h 43 min
    ( J$ j2 k5 d1 U" |4 S* j
  11. Bit rate                                 : 4 511 kb/s
    8 [9 y$ j9 Y$ K+ _, a3 o
  12. Width                                    : 1 280 pixels* Q8 \5 Q$ i2 t5 ?4 W, a
  13. Height                                   : 536 pixels
    0 c0 ^  H- f0 i3 S7 q, ]
  14. Display aspect ratio                     : 2.40:1
    - P# \* |* T6 ]2 s
  15. Frame rate mode                          : Constant* g3 c! j0 G# @' f! [
  16. Frame rate                               : 24.000 FPS+ ^) X4 ^4 {3 E# F
  17. Color space                              : YUV
      J8 z( B3 T! ]: c# y; b* [
  18. Chroma subsampling                       : 4:2:05 v. ^0 X) O! |' H3 V$ A( k
  19. Bit depth                                : 8 bits0 B& ^" A7 T( E. H
  20. Scan type                                : Progressive% `1 p; I0 L) T. A# L$ G3 i) w
  21. Bits/(Pixel*Frame)                       : 0.274
    4 a9 _& i" M  V4 ?! V+ V' I
  22. Stream size                              : 3.26 GiB (75%)
    + L2 e" C9 u+ V  o: d" Z  z$ M  Q
  23. Writing library                          : x264 core 157 r2969 d4099dd% u6 b! f6 r. v: d4 R- _& E. u
  24. Encoding settings                        : cabac=1 / ref=5 / deblock=1:0:0 / analyse=0x3:0x113 / me=umh / subme=8 / psy=1 / psy_rd=1.00:0.00 / mixed_ref=1 / me_range=16 / chroma_me=1 / trellis=1 / 8x8dct=1 / cqm=0 / deadzone=21,11 / fast_pskip=1 / chroma_qp_offset=-2 / threads=12 / lookahead_threads=2 / sliced_threads=0 / nr=0 / decimate=1 / interlaced=0 / bluray_compat=0 / constrained_intra=0 / bframes=3 / b_pyramid=2 / b_adapt=1 / b_bias=0 / direct=3 / weightb=1 / open_gop=0 / weightp=2 / keyint=240 / keyint_min=24 / scenecut=40 / intra_refresh=0 / rc_lookahead=50 / rc=2pass / mbtree=1 / bitrate=4511 / ratetol=1.0 / qcomp=0.60 / qpmin=0 / qpmax=69 / qpstep=4 / cplxblur=20.0 / qblur=0.5 / ip_ratio=1.40 / aq=1:1.00
    7 e4 l5 P! q% W# n+ S
  25. Language                                 : English
    - b+ E6 O: ?) C1 L" L1 }5 l
  26. Default                                  : Yes
    2 f+ M. c. s# `0 ]
  27. Forced                                   : No
    ) c, D1 U2 ?+ Q6 C" Z3 C: o6 n7 ~4 a2 C3 H
  28. 8 P9 c7 n! t* U/ u! p! {
  29. Audio
    " Q8 c3 V7 D  Y+ B
  30. ID                                       : 2
    7 j8 }9 K# N+ ?. m
  31. Format                                   : DTS
    & g; w1 J& N$ w' ^% y
  32. Format/Info                              : Digital Theater Systems. U1 y0 P  K4 q& Q/ I. [
  33. Codec ID                                 : A_DTS
    ! h0 Y: X3 i: |' h- J* J8 u
  34. Duration                                 : 1 h 45 min
    ; F0 B4 I6 _! {# z
  35. Bit rate mode                            : Constant7 {3 G9 J' |8 f# h
  36. Bit rate                                 : 1 509 kb/s
    7 l% A" \. o4 ]3 O
  37. Channel(s)                               : 6 channels+ G4 x7 E/ e4 O3 a. z* W! ]
  38. Channel layout                           : C L R Ls Rs LFE3 Y# @, f0 V" A6 i4 f, H+ m
  39. Sampling rate                            : 48.0 kHz9 n& a7 q5 d1 l3 l' Z' v
  40. Frame rate                               : 93.750 FPS (512 SPF)0 s( N& i- k: P  n+ |6 `  k
  41. Bit depth                                : 24 bits
    2 ?: H; ]; A8 `
  42. Compression mode                         : Lossy
    8 {- ^! j6 }$ ?. |+ u! m& q
  43. Stream size                              : 1.11 GiB (25%)
    * b0 Q% h+ D9 U
  44. Title                                    : English) ?( |. F' j/ S; v# j
  45. Language                                 : English+ M' q4 Z# K! t1 s. M+ R
  46. Default                                  : Yes
    7 C, i) }3 G! l5 G7 c
  47. Forced                                   : No
复制代码

; u* I- e7 [. A 意图2:显现 The.Intent.2.The.Come.Up.2018.LIMITED.720p.BluRay.x264-SNOW 4.37GB-2.png
' V" `& Z! v5 W: z7 Y5 x( }2 ]- _  I' f$ a6 E9 _

8 M8 m, i+ R3 V# t( S. S: h2 _% g) e; L9 u+ `
$ }: a: B3 I+ w7 w# x0 \/ e& k
) d3 ^7 v! K! s0 |, a* g! A. G
VIP会员免费任意下载本站所有资源!---点击开通
回复

使用道具 举报

级别:领衔主演 Lv.6

注册时间
2019-4-24
最后登录
2019-9-21
听众
13
收听
0
主题
0
蓝光币
111 枚
贡献
0 点
发表于 4 天前 | 显示全部楼层
楼主发贴辛苦了,谢谢楼主分享!我觉得中国高清电影网是注册对了!
VIP会员免费任意下载本站所有资源!---点击开通
回复

使用道具 举报

懒得打字嘛,点击右侧快捷回复 【右侧内容,后台自定义】
您需要登录后才可以回帖 登录 | 立即注册

本版积分规则

QQ|Archiver|手机版|小黑屋| 中国高清网 |网站地图

GMT+8, 2019-9-21 20:58 , Processed in 0.259496 second(s), 39 queries .

Powered by HDchina X3.4

Copyright 2017-2019©HDchina.All right reserved

返回顶部 联系我们