查看: 90|回复: 1

[犯罪片] 意图2:浮现 The.Intent.2.The.Come.Up.2018.LIMITED.720p.BluRay.x264-SNOW 4.37GB

[复制链接]

 成长值: 3810

级别:资源管理组

注册时间
2017-10-20
最后登录
2020-1-19
听众
1
收听
0
主题
90464
蓝光币
82824 枚
贡献
14826 点
发表于 2019-9-13 10:53:10 | 显示全部楼层 |阅读模式
意图2:显现 The.Intent.2.The.Come.Up.2018.LIMITED.720p.BluRay.x264-SNOW 4.37GB-1.png
1 ?' t9 g5 d+ E, \5 a. @) h
  A3 H6 t7 Z  k9 @译  名 意图2:显现
, X0 v! k3 E( B4 z片  名 The Intent 2: The Come Up& w- F9 t7 E3 F3 j, F
年  代 2018
' q: P* N5 ]3 Y0 w; D产  地 英国! K" |2 O0 z# G. e3 t
类  别 犯罪% F3 f* O5 r. i6 z
语  言 英语
) s8 N# \( |& L8 Z上映日期 2018-09-21(英国)% }! O5 {# |/ N0 l+ W/ s; [
IMDb评分  3.7/10 from 282 users
/ m( ~( i' B, I2 k- ]( w# ?IMDb链接  http://www.imdb.com/title/tt7613996
7 R  }' ?- C; s1 J0 m( p% D豆瓣评分 0/10 from 0 users
( J4 j( J0 Q6 _7 k  U! J3 r豆瓣链接 https://movie.douban.com/subject/30430663/
$ t* N* X' |. K$ t" h4 i片  长 103分钟( Q4 r' {4 E0 w! W. S
导  演 Femi Oyeniran / Nicky Slimting Walker; }/ ~, ^% d) n. G9 X: w# K5 m
编  剧 Femi Oyeniran / Nicky Slimting Walker
/ J( u! h! i9 F7 {1 M主  演 Adam Deacon
, X: p% X; i3 E3 _& C       Selva Rasalingam
* B9 K& y  @$ v1 Z/ o( G       凯伦·布莱森 Karen Bryson3 M5 f, K2 n( p: A
       Ashley Chin
; b2 p0 M1 P$ U# _       Femi Oyeniran
' C; Y4 d; D8 B3 i/ m  y       Joanne Matthews1 P1 c% Y. _1 Q4 w
       Dylan Duffus( _( m% G( q% p# m" O3 ?9 A! Q
       Sarah Akokhia
8 o# I7 g% O5 N9 a       Jay Brown% D5 H  l- w7 X- i1 Q' \0 X4 q
       Shone Romulus
+ C- h- C$ U, J) t/ ~5 P       Todd Von Joel
* N4 }  O6 v4 ?" r8 f       Waleed Akhtar
' u3 v% `( |* y1 S- _       Nicky Slimting Walker4 w% C9 V; w  @
       Russell Barnett; l8 ?% O0 O$ B  M
       Nathan Hector7 t! }' N& x, L. ^1 h  Q

: ?' ^% ?% z0 J: Y+ f$ ~4 k2 q- q
* G. h6 Z( _' x3 f) {, r- \" `# X标  签 犯罪 | 烂片 | 枪战 | 行动; }' L, q  d6 m' \' F
8 @& ?5 p9 X  Z0 L( u9 ]
简  介  
7 ^+ W% n, j  D- f( L/ |9 y+ H' J
7 x( z( x& A: T' s  Prequel the the successful 2016 film 'The Intent'4 i$ f: z0 C( X  b( J9 P
  1. Video
    : v0 g  @; x: Q* U1 B5 x1 U
  2. ID                                       : 15 u6 c5 \! Q8 r3 ?
  3. Format                                   : AVC7 u; L; Q; g5 _) X7 P9 N
  4. Format/Info                              : Advanced Video Codec9 n, @9 L( \3 g' Z8 @
  5. Format profile                           : <a href="/cdn-cgi/l/email-protection" class="__cf_email__" data-cfemail="165e7f717e565a223827">[email protected]</a>% q+ E, g  K- c/ l5 \
  6. Format settings                          : CABAC / 5 Ref Frames& f5 T/ h  D; |/ e5 B0 Z) k, [
  7. Format settings, CABAC                   : Yes: L* m6 A2 D/ U& W, i1 i
  8. Format settings, Reference frames        : 5 frames  o& s6 Z6 t7 v  O
  9. Codec ID                                 : V_MPEG4/ISO/AVC; f+ _  d. L  ?* k% \
  10. Duration                                 : 1 h 43 min
    3 @0 i/ G- F" }' Y; V3 W
  11. Bit rate                                 : 4 511 kb/s" h. K6 A" D# ?+ s4 K7 Y
  12. Width                                    : 1 280 pixels
    * r) p4 k  \) [) x' f
  13. Height                                   : 536 pixels* b0 t* x! _9 v6 L9 e6 l- W
  14. Display aspect ratio                     : 2.40:14 N, o, y' Q  E
  15. Frame rate mode                          : Constant
    2 G! x* E; g# ~, S7 r
  16. Frame rate                               : 24.000 FPS' S0 C3 I4 Q* J' b% E
  17. Color space                              : YUV# {0 F8 ^3 X. k; E( q
  18. Chroma subsampling                       : 4:2:0
    9 F* S* g. w: l5 ^* S/ E
  19. Bit depth                                : 8 bits' n9 Z. }! c" C8 }2 ]
  20. Scan type                                : Progressive0 l) q; M, G2 ^  ~# U; g( F
  21. Bits/(Pixel*Frame)                       : 0.274
    $ M$ F9 H# |8 u7 L; q: s9 z
  22. Stream size                              : 3.26 GiB (75%)
    6 p4 l$ O' g- H* q- n$ H
  23. Writing library                          : x264 core 157 r2969 d4099dd. `6 t: q3 }( v# O
  24. Encoding settings                        : cabac=1 / ref=5 / deblock=1:0:0 / analyse=0x3:0x113 / me=umh / subme=8 / psy=1 / psy_rd=1.00:0.00 / mixed_ref=1 / me_range=16 / chroma_me=1 / trellis=1 / 8x8dct=1 / cqm=0 / deadzone=21,11 / fast_pskip=1 / chroma_qp_offset=-2 / threads=12 / lookahead_threads=2 / sliced_threads=0 / nr=0 / decimate=1 / interlaced=0 / bluray_compat=0 / constrained_intra=0 / bframes=3 / b_pyramid=2 / b_adapt=1 / b_bias=0 / direct=3 / weightb=1 / open_gop=0 / weightp=2 / keyint=240 / keyint_min=24 / scenecut=40 / intra_refresh=0 / rc_lookahead=50 / rc=2pass / mbtree=1 / bitrate=4511 / ratetol=1.0 / qcomp=0.60 / qpmin=0 / qpmax=69 / qpstep=4 / cplxblur=20.0 / qblur=0.5 / ip_ratio=1.40 / aq=1:1.00
    $ Q9 ^5 g. {7 Q
  25. Language                                 : English
    $ u4 e+ g" i- G: Z# H0 `
  26. Default                                  : Yes
    ' Q, u2 r" {' g8 t, d2 a
  27. Forced                                   : No( d  }2 G* |% G  r/ M

  28. ) }' V  g& ^& ^) j) @
  29. Audio
    . g+ j! K# J6 N8 k
  30. ID                                       : 2
    2 |5 ?: N* P% h3 W5 G, O) }
  31. Format                                   : DTS
    8 o* @  `, V& D
  32. Format/Info                              : Digital Theater Systems
    ; Y, q( h/ L7 R% b# u
  33. Codec ID                                 : A_DTS
    1 v  H. M2 q" l
  34. Duration                                 : 1 h 45 min' A5 Y4 l! i# l6 V+ y. M7 o
  35. Bit rate mode                            : Constant& y1 R: o9 B! t* e8 r1 }
  36. Bit rate                                 : 1 509 kb/s) B; o4 N& e" a; ]& X/ U
  37. Channel(s)                               : 6 channels! l2 b( e3 q# Z2 t
  38. Channel layout                           : C L R Ls Rs LFE
    9 N) A( W( N; h+ P0 L$ B
  39. Sampling rate                            : 48.0 kHz
    ; Z' V& t3 ?, e  M  ]: H# A* t
  40. Frame rate                               : 93.750 FPS (512 SPF)
    0 M$ A, Y8 S- ^+ a9 \
  41. Bit depth                                : 24 bits6 b& K/ O  ^& E9 E$ u
  42. Compression mode                         : Lossy
    ; R$ |  s* F1 g# C' c
  43. Stream size                              : 1.11 GiB (25%)& J0 Z) L+ M& w8 ?$ h$ g
  44. Title                                    : English# j! C1 y4 P0 {3 B3 S; `
  45. Language                                 : English
    , X2 s# Z% m$ p0 m; D4 ~( b
  46. Default                                  : Yes
    0 |+ j: U6 a0 [6 |4 R- G
  47. Forced                                   : No
复制代码
8 L, t$ e/ U. l! s; ?
意图2:显现 The.Intent.2.The.Come.Up.2018.LIMITED.720p.BluRay.x264-SNOW 4.37GB-2.png
: a2 g$ G, ~: {4 ]' T. c3 m/ C2 [# L, J5 ]
5 q$ N. J6 M7 A' M! V# z
- K, Z& Y' j' u. f( C" A
" t) Q( s( J# X  f) T* J9 v
5 e  V2 f7 T2 C5 y
VIP会员免费任意下载本站所有资源!---点击开通
回复

使用道具 举报

级别:一线明星 Lv.8

注册时间
2019-4-24
最后登录
2020-1-18
听众
14
收听
0
主题
0
蓝光币
257 枚
贡献
0 点
发表于 2019-9-17 08:46:07 | 显示全部楼层
楼主发贴辛苦了,谢谢楼主分享!我觉得中国高清电影网是注册对了!
VIP会员免费任意下载本站所有资源!---点击开通
回复

使用道具 举报

懒得打字嘛,点击右侧快捷回复 【右侧内容,后台自定义】
您需要登录后才可以回帖 登录 | 立即注册

本版积分规则

Archiver|手机版|小黑屋| 中国高清网 |网站地图

GMT+8, 2020-1-19 00:59 , Processed in 0.164360 second(s), 37 queries .

Powered by HDchina X3.4

Copyright 2017-2019©HDchina.All right reserved

返回顶部 联系我们