查看: 14|回复: 1

[悬疑片] 谋杀/凶手 Murder.1930.720p.BluRay.X264-AMIABLE 6.56GB

[复制链接]

 成长值: 2570

级别:资源管理组

注册时间
2017-10-20
最后登录
2019-9-21
听众
1
收听
0
主题
83026
蓝光币
49759 枚
贡献
7354 点
发表于 2019-9-13 10:48:34 | 显示全部楼层 |阅读模式
谋杀/凶手 Murder.1930.720p.BluRay.X264-AMIABLE 6.56GB-1.png
. [' b. i5 V1 M2 C- j" E7 v7 n+ E9 w- T* |
译  名 谋杀 / 凶手 / 谋杀者
% v& a5 L% z5 J# e7 |( h1 M片  名 Murder!
6 V7 a) y  {. A7 X年  代 1930* w- A% l1 d' ~5 ^9 o2 Y" G
产  地 英国) @! v( {0 B! ~& z0 n! |
类  别 悬疑 / 惊悚 / 犯罪
0 t1 ^. c7 u% L2 \4 u& }语  言 英语* X! T: ]1 s/ i6 J
上映日期 1930-07-31
' h# _, c" M" X; ]0 AIMDb评分  6.4/10 from 5108 users
! ?6 P; h% k  n5 M0 k5 v' g0 J. eIMDb链接  http://www.imdb.com/title/tt0021165
' J1 n! R; U6 ?( y/ j+ G6 w# g豆瓣评分 7.2/10 from 501 users
$ B! d0 S/ M: t8 M9 ?' p& Z$ D豆瓣链接 https://movie.douban.com/subject/1457874/# h' }7 V5 V& W7 w7 U7 D: f
片  长 104 分钟, Q  r6 ]% y! m1 f
导  演 Alfred Hitchcock4 q3 M; N- |3 [, S5 N
编  剧 Alfred Hitchcock / Walter C. Mycroft / Alma Reville / Clemence Dane / Helen Simpson8 B2 o$ p: q+ S" @
主  演 Herbert Marshall: C$ V# w" `7 V* N  L7 w
       Norah Baring
9 ]' d8 q0 X3 @- A" V       Phyllis Konstam
+ V0 G' K2 V) U; B       Edward Chapman
& d/ z% i: O5 {6 `& V+ B3 |9 d       Miles Mander# Y4 A' u. Z' V% Z
' C7 C+ S1 C9 _) Y  B& U
" x3 Y5 V% e4 q7 H
标  签 希区柯克 | 英国 | 悬疑 | AlfredHitchcock | 阿尔弗雷德·希区柯克 | Alfred_Hitchcock | 1930 | 1930s0 y- ^" |6 G: Y* h& c: V2 C

4 ^: T; X4 \: f3 ~简  介  $ Q% ~' V4 s3 D9 l1 `
- S% d7 l  B& g7 K$ d
  一位女演员被发现在一具尸身的旁边,而她又落空了记忆,似乎没有什么能说明她不是凶手。就在法院认定她有罪并被判正法刑的时辰,仍然有一小我相信她是无辜的,但他可以找出充足的证据解救她吗?( I- T; A5 I" {4 C6 x
  1. Video9 M" m" s, A' y
  2. ID                                       : 1! t; v, e/ m4 V+ t8 |
  3. Format                                   : AVC, |7 C# j, z1 {- Y# Z+ q) ]
  4. Format/Info                              : Advanced Video Codec8 D, S- l$ ?& I- Q
  5. Format profile                           : <a href="/cdn-cgi/l/email-protection" class="__cf_email__" data-cfemail="541c3d333c1418607a65">[email protected]</a>
    & g' m, ^. K" a% u; d
  6. Format settings                          : CABAC / 5 Ref Frames
    + ~8 K! b) p5 K! D" T% }9 ]/ |
  7. Format settings, CABAC                   : Yes
    - u, ~7 K: g6 ]) H! ?0 S- B$ A6 u
  8. Format settings, Reference frames        : 5 frames3 f* R% s, c3 f" T! i  e
  9. Codec ID                                 : V_MPEG4/ISO/AVC
    8 Z: m/ V+ j- \4 G0 H' P' r7 D: ]
  10. Duration                                 : 1 h 42 min
    ) z! A! E0 D; n. D+ `
  11. Bit rate                                 : 7 666 kb/s2 E. q) Q. l) D% o; g/ U$ j2 X/ [
  12. Width                                    : 960 pixels
    ' x& K& a3 s, [
  13. Height                                   : 720 pixels7 Y- W' Q' ^& M. e  ]0 l- Q, V
  14. Display aspect ratio                     : 4:3& e! @7 t+ m3 R% m7 ~
  15. Frame rate mode                          : Constant
    8 J2 p1 Y6 z6 h, c$ Q  I3 I$ b
  16. Frame rate                               : 23.976 (24000/1001) FPS
    - Z; f! {5 T( Q& d! @
  17. Color space                              : YUV
    8 ?4 @2 R  x6 O
  18. Chroma subsampling                       : 4:2:01 J& E8 \0 B* p
  19. Bit depth                                : 8 bits
    # R, s' C# I& S7 m. U
  20. Scan type                                : Progressive
    2 U  a$ @% P# ]( C! P/ a
  21. Bits/(Pixel*Frame)                       : 0.4630 g6 ~) _/ E4 d4 V+ N$ L3 g
  22. Stream size                              : 5.35 GiB (82%): @# m0 L& E+ i% Z8 x+ b
  23. Writing library                          : x264 core 158 r2984 3759fcb
    5 ]7 N& a0 Y, U( P2 \* H/ V
  24. Encoding settings                        : cabac=1 / ref=5 / deblock=1:-3:-3 / analyse=0x3:0x113 / me=umh / subme=8 / psy=1 / psy_rd=1.15:0.00 / mixed_ref=1 / me_range=24 / chroma_me=1 / trellis=2 / 8x8dct=1 / cqm=0 / deadzone=21,11 / fast_pskip=1 / chroma_qp_offset=-2 / threads=22 / lookahead_threads=3 / sliced_threads=0 / nr=0 / decimate=1 / interlaced=0 / bluray_compat=0 / constrained_intra=0 / bframes=3 / b_pyramid=2 / b_adapt=2 / b_bias=0 / direct=3 / weightb=1 / open_gop=0 / weightp=2 / keyint=240 / keyint_min=24 / scenecut=40 / intra_refresh=0 / rc_lookahead=50 / rc=2pass / mbtree=1 / bitrate=7666 / ratetol=1.0 / qcomp=0.60 / qpmin=0 / qpmax=69 / qpstep=4 / cplxblur=20.0 / qblur=0.5 / ip_ratio=1.40 / aq=3:0.65
    4 A; t  {. {' i3 a/ a2 H2 N3 D
  25. Default                                  : Yes$ h+ M% N1 s* ?9 m6 o+ s) O
  26. Forced                                   : No# Z& f# v+ t* \. x7 J8 ^( i
  27. Statistics Tags Issue                    : no_variable_data 1970-01-01 00:00:00 / no_variable_data 2010-02-22 21:41:29
    % c" K: R. b) r9 u% }! {! }/ W
  28. FromStats_BitRate                        : 7664988
    - N' |) G) R& k. ?$ {
  29. FromStats_Duration                       : 01:42:18.049000000% l  u$ y' ?, S+ K$ d" g% c$ s
  30. FromStats_FrameCount                     : 147166* i: q& G; y& y; F9 U, U
  31. FromStats_StreamSize                     : 5881009299
    : Y( ^4 L6 R3 J! C
  32. : r: V( W; H5 n4 {
  33. Audio
    . X/ J( H4 }9 @5 o
  34. ID                                       : 2
    6 D: N8 J  i! u7 s2 w& I
  35. Format                                   : DTS$ h! t* a& d  J; M/ \; i
  36. Format/Info                              : Digital Theater Systems7 L4 Y! Z- }0 n. r- D: y! n# E
  37. Codec ID                                 : A_DTS
    $ O- P* ]: {# W7 `8 b! H& F
  38. Duration                                 : 1 h 42 min7 |) T, f  w+ O" j4 K
  39. Bit rate mode                            : Constant
    5 k) ?  f" `- `9 Q5 X, O4 x. m& U
  40. Bit rate                                 : 1 509 kb/s
    $ I$ V2 a- \+ l; j7 Z) L" h( R& g) j
  41. Channel(s)                               : 2 channels/ `. v- B( T. @  S  X* X
  42. Channel layout                           : L R
    ) s4 m: e( F' `6 @
  43. Sampling rate                            : 48.0 kHz. q5 ]+ t; v- N- t4 E
  44. Frame rate                               : 93.750 FPS (512 SPF)  {, h6 y# M# L9 h5 h
  45. Bit depth                                : 24 bits3 U, }& n1 ~' f
  46. Compression mode                         : Lossy
    # M$ ?% i' ^+ m& o9 N9 _
  47. Stream size                              : 1.08 GiB (16%)
    9 r; Q! x( Z9 Q4 l6 ^
  48. Language                                 : English, t( e: s8 p' h( I
  49. Default                                  : Yes
    8 F" q: Y) w6 k0 [7 u% s
  50. Forced                                   : No# d, }( O0 [# i& h9 h+ o  D
  51. Statistics Tags Issue                    : no_variable_data 1970-01-01 00:00:00 / no_variable_data 2010-02-22 21:41:29
    , F. C  t& x+ t' f( v
  52. FromStats_BitRate                        : 1508999$ ^3 c+ z* `4 n( x& ]2 C1 P' L
  53. FromStats_Duration                       : 01:42:18.134000000/ D1 S& A6 C5 o' ?4 u) B! b
  54. FromStats_FrameCount                     : 575450
    * Z6 O  n  @6 Y2 E
  55. FromStats_StreamSize                     : 11578054007 L( x# A. H9 l7 d% T# t
  56.   N7 ~1 R& ?( |0 U" ]. A
  57. Text
    $ Q: e4 K; K3 ]* `" d" |8 F
  58. ID                                       : 3( m" @% |' @% P) j8 Z
  59. Format                                   : UTF-8
    9 X. |" q0 X4 G( u' L- k' X2 c
  60. Codec ID                                 : S_TEXT/UTF8
    - C' ?: e# E+ W. S
  61. Codec ID/Info                            : UTF-8 Plain Text
    8 k, l/ l' T% V* B; E
  62. Language                                 : English
    , u3 f  V0 ^) m4 C- |- I' ^5 ~
  63. Default                                  : No$ \6 G8 W! O0 p7 N4 v
  64. Forced                                   : No8 F+ B" F; l/ }# a# N
  65. Statistics Tags Issue                    : no_variable_data 1970-01-01 00:00:00 / no_variable_data 2010-02-22 21:41:29
    " a5 O& n4 R8 g7 j' H" {6 _" S
  66. FromStats_BitRate                        : 71
    4 D$ N) q* I3 u
  67. FromStats_Duration                       : 01:39:25.376000000
    : r4 K' D8 @/ v/ w* o" |; k
  68. FromStats_FrameCount                     : 1373
    7 n7 S4 \# ^+ D' X; Y  ~( j
  69. FromStats_StreamSize                     : 53464
    ( i' ~/ G2 T" X" v& `
  70. 5 d  A" T* @+ `
  71. Menu
    - ?0 o' j; Z5 u
  72. 00:00:00.000                             : en:Chapter 01# U  p( M$ v( Z& y* \9 ^" ?
  73. 00:14:32.206                             : en:Chapter 02" h" F# `) p  C, F# D
  74. 00:33:59.622                             : en:Chapter 03& [  K$ F2 U! S8 \9 ^/ K
  75. 00:43:22.101                             : en:Chapter 04
    3 _# l! R+ O" u+ }* m- M0 F4 [( p
  76. 00:56:15.957                             : en:Chapter 05
    $ q- }. p6 D+ T- i( R6 d! x, _* }
  77. 01:12:33.892                             : en:Chapter 06; j2 ~9 O; G6 q5 T
  78. 01:22:42.542                             : en:Chapter 07
    - a. J2 r# f' l* w4 M" k/ I- y
  79. 01:32:18.826                             : en:Chapter 08
复制代码

8 q) i1 a& {1 Z1 t) J: M 谋杀/凶手 Murder.1930.720p.BluRay.X264-AMIABLE 6.56GB-2.png * h. x0 s. V7 f! K1 r1 j
" `. g% s  C2 f' x0 `; B

% ^) Z1 p" b0 v9 ^
& ?- u: X7 j, f8 R' `2 ^
9 z! F+ Y9 w0 A! ^) E2 g/ k6 _$ q2 {% ~3 [0 v

& r! U( K! I! n% c# ~" t8 l: D4 S
VIP会员免费任意下载本站所有资源!---点击开通
回复

使用道具 举报

级别:领衔主演 Lv.6

注册时间
2019-4-24
最后登录
2019-9-21
听众
13
收听
0
主题
0
蓝光币
111 枚
贡献
0 点
发表于 4 天前 | 显示全部楼层
楼主发贴辛苦了,谢谢楼主分享!我觉得中国高清电影网是注册对了!
VIP会员免费任意下载本站所有资源!---点击开通
回复

使用道具 举报

懒得打字嘛,点击右侧快捷回复 【右侧内容,后台自定义】
您需要登录后才可以回帖 登录 | 立即注册

本版积分规则

QQ|Archiver|手机版|小黑屋| 中国高清网 |网站地图

GMT+8, 2019-9-21 20:59 , Processed in 0.589304 second(s), 39 queries .

Powered by HDchina X3.4

Copyright 2017-2019©HDchina.All right reserved

返回顶部 联系我们