查看: 58|回复: 1

[悬疑片] 谋杀/凶手 Murder.1930.720p.BluRay.X264-AMIABLE 6.56GB

[复制链接]

 成长值: 3810

级别:资源管理组

注册时间
2017-10-20
最后登录
2020-1-19
听众
1
收听
0
主题
90464
蓝光币
82824 枚
贡献
14826 点
发表于 2019-9-13 10:48:34 | 显示全部楼层 |阅读模式
谋杀/凶手 Murder.1930.720p.BluRay.X264-AMIABLE 6.56GB-1.png : w' H7 [7 P; x$ F6 L; e
4 M( J0 a) I* X+ h$ D
译  名 谋杀 / 凶手 / 谋杀者
1 ^7 e# {5 `8 I7 r' S) X片  名 Murder!( J+ e. `* G; y; [. R4 S" T
年  代 19307 a* o/ A% N0 G* ~
产  地 英国
7 |' f  m1 m0 d6 z) G类  别 悬疑 / 惊悚 / 犯罪
- V' f; x- {  t7 j6 M语  言 英语' Z0 I" w8 u1 r' f# F, G  G9 }
上映日期 1930-07-31
. {! Y. o3 Z  x9 m' C9 f, ~* G6 F6 dIMDb评分  6.4/10 from 5108 users
& g; B" e" P9 H; I; F( l+ gIMDb链接  http://www.imdb.com/title/tt0021165
9 E1 n1 B6 y1 V- k3 x$ {豆瓣评分 7.2/10 from 501 users
3 U. B/ m2 f$ {- [豆瓣链接 https://movie.douban.com/subject/1457874/
9 \4 c! b( L) Q2 V  R( P片  长 104 分钟
! ^5 z; |5 S# Q* u2 [: [导  演 Alfred Hitchcock+ {1 `: W' h# B) s3 i0 ~0 L
编  剧 Alfred Hitchcock / Walter C. Mycroft / Alma Reville / Clemence Dane / Helen Simpson2 c: U' K8 [7 z
主  演 Herbert Marshall+ ^' n% ?' v5 W6 r2 Z: X) o
       Norah Baring  u* ~# G. |9 E: ?) Z1 h2 o6 p3 h
       Phyllis Konstam
$ E/ M: Y) X! Z+ M       Edward Chapman# d8 ^; x8 G4 A* y' u$ t
       Miles Mander' ^2 f# \  |% D2 N8 a4 v2 J

- ]8 }0 ]4 m6 d/ y, h, Z" f7 G+ U5 E9 ?( C9 U' ^
标  签 希区柯克 | 英国 | 悬疑 | AlfredHitchcock | 阿尔弗雷德·希区柯克 | Alfred_Hitchcock | 1930 | 1930s$ t$ Y' R, l8 H9 |7 g# k( C# ]

, ]  d5 A/ j/ Z6 c4 g简  介  1 T# z# U2 y. y% B0 j) J6 L% [

1 T  d8 R1 R9 Z9 G9 y3 V; F  一位女演员被发现在一具尸身的旁边,而她又落空了记忆,似乎没有什么能说明她不是凶手。就在法院认定她有罪并被判正法刑的时辰,仍然有一小我相信她是无辜的,但他可以找出充足的证据解救她吗?  L- v$ {+ d4 U' f5 h3 O0 d% A0 M
  1. Video
    / @. Z3 a7 }2 U8 U# Y
  2. ID                                       : 1& P, u+ ~$ t# ?  L
  3. Format                                   : AVC
    - w  B3 `4 V. I" Q* `
  4. Format/Info                              : Advanced Video Codec! l* }2 I  c( h4 c, m+ }* S+ j- v/ D
  5. Format profile                           : <a href="/cdn-cgi/l/email-protection" class="__cf_email__" data-cfemail="541c3d333c1418607a65">[email protected]</a>
    " q- j: s% O( I) ^- N$ l: A
  6. Format settings                          : CABAC / 5 Ref Frames& A2 n  D; N) Y% k) J
  7. Format settings, CABAC                   : Yes: z# p3 l/ L! |3 @
  8. Format settings, Reference frames        : 5 frames
      P2 z" V3 D9 l/ Y  `
  9. Codec ID                                 : V_MPEG4/ISO/AVC* a' T  c$ s1 ^2 I$ o6 B+ l
  10. Duration                                 : 1 h 42 min
    + Z6 R- o8 U; @% o, [) P+ v, M& j
  11. Bit rate                                 : 7 666 kb/s
    * D& G* b5 P, g1 p
  12. Width                                    : 960 pixels  B2 }1 g. p; l' H
  13. Height                                   : 720 pixels
    % w" d& A8 K6 L4 t$ h7 w
  14. Display aspect ratio                     : 4:37 L6 m* N5 D/ G: d* w7 Z
  15. Frame rate mode                          : Constant
    6 D9 w) q+ _, w( e, A4 @
  16. Frame rate                               : 23.976 (24000/1001) FPS
    ; @" p2 ?% D2 R2 ~5 A
  17. Color space                              : YUV
    1 i% i$ P; |6 f$ w
  18. Chroma subsampling                       : 4:2:0* S4 }6 |4 N' O0 |2 k5 h$ m2 C
  19. Bit depth                                : 8 bits' R. C0 H" u) o0 G1 e  z: M4 L& p
  20. Scan type                                : Progressive
    - N2 e) \, E. f( y5 Q) \5 K, I
  21. Bits/(Pixel*Frame)                       : 0.463* L, u6 N0 x1 V$ L/ [% @
  22. Stream size                              : 5.35 GiB (82%), P4 g, h2 J2 a( R6 h
  23. Writing library                          : x264 core 158 r2984 3759fcb) @. i- h! P# u  F* ~' y
  24. Encoding settings                        : cabac=1 / ref=5 / deblock=1:-3:-3 / analyse=0x3:0x113 / me=umh / subme=8 / psy=1 / psy_rd=1.15:0.00 / mixed_ref=1 / me_range=24 / chroma_me=1 / trellis=2 / 8x8dct=1 / cqm=0 / deadzone=21,11 / fast_pskip=1 / chroma_qp_offset=-2 / threads=22 / lookahead_threads=3 / sliced_threads=0 / nr=0 / decimate=1 / interlaced=0 / bluray_compat=0 / constrained_intra=0 / bframes=3 / b_pyramid=2 / b_adapt=2 / b_bias=0 / direct=3 / weightb=1 / open_gop=0 / weightp=2 / keyint=240 / keyint_min=24 / scenecut=40 / intra_refresh=0 / rc_lookahead=50 / rc=2pass / mbtree=1 / bitrate=7666 / ratetol=1.0 / qcomp=0.60 / qpmin=0 / qpmax=69 / qpstep=4 / cplxblur=20.0 / qblur=0.5 / ip_ratio=1.40 / aq=3:0.65  R- o/ Y: G- `3 u$ d; @9 v
  25. Default                                  : Yes# T! f+ v" A1 J, a
  26. Forced                                   : No
    6 B, o$ U8 {! [, }$ F# @
  27. Statistics Tags Issue                    : no_variable_data 1970-01-01 00:00:00 / no_variable_data 2010-02-22 21:41:29
    * W% X$ z2 Q0 E" A9 ~- }- L) @
  28. FromStats_BitRate                        : 7664988) P9 c3 E0 W/ }+ o; _% ?: S
  29. FromStats_Duration                       : 01:42:18.049000000* l$ e8 b( ^/ b  \
  30. FromStats_FrameCount                     : 147166
    ( o, q( z4 [8 l9 ]
  31. FromStats_StreamSize                     : 5881009299
    : W$ _6 F. h( @8 t  ]) e! b+ M
  32. * s9 a6 r5 S4 \# F
  33. Audio
    $ z3 @, y4 T' g; q
  34. ID                                       : 2! _; d6 P' \. k
  35. Format                                   : DTS5 i# ^; T; j( ]. n
  36. Format/Info                              : Digital Theater Systems4 j- Z1 L: K. N5 d
  37. Codec ID                                 : A_DTS
    0 e, u6 p$ m/ F' `7 H8 t
  38. Duration                                 : 1 h 42 min
    / U& @1 l8 c0 j  i) @
  39. Bit rate mode                            : Constant
    0 I- u- }+ V5 Q3 z
  40. Bit rate                                 : 1 509 kb/s
    ' `1 F* O* f* ~) B
  41. Channel(s)                               : 2 channels! s7 W: w' {& r, M* {9 J
  42. Channel layout                           : L R# G/ u, U+ w( J1 N6 @. U* j- \
  43. Sampling rate                            : 48.0 kHz; R5 a9 s% R0 p4 T: U: V, |
  44. Frame rate                               : 93.750 FPS (512 SPF)4 J, J& d$ ?8 I$ S' j7 y/ Y
  45. Bit depth                                : 24 bits
    ! R7 U1 D* S% `! n) u# f) j
  46. Compression mode                         : Lossy
      o  c) g( V' S/ \# B; ^" `
  47. Stream size                              : 1.08 GiB (16%)
    $ Q8 X4 h+ Y9 i4 [7 |! c' C
  48. Language                                 : English
    8 G2 U7 l" \1 ?8 k
  49. Default                                  : Yes
    & x) m7 K  k( b0 _( T& F
  50. Forced                                   : No
    ) u: _, v4 s' Y- E" B, y) c
  51. Statistics Tags Issue                    : no_variable_data 1970-01-01 00:00:00 / no_variable_data 2010-02-22 21:41:29( W4 Y6 }% h+ D  {& ]7 M
  52. FromStats_BitRate                        : 1508999
    1 H7 m6 P  r, W- F
  53. FromStats_Duration                       : 01:42:18.134000000
    $ K/ o& }8 _, [7 a% B! l7 b# j
  54. FromStats_FrameCount                     : 5754506 K: r1 D; R2 \; N
  55. FromStats_StreamSize                     : 11578054006 ]; g; s2 t3 b- `: p6 Z

  56. 1 h. W$ {: V( m3 a& R# A
  57. Text
    6 p- K& D' G5 w' P; W& w" S
  58. ID                                       : 36 Y* F; E+ g  Z/ B/ h  U( }9 I
  59. Format                                   : UTF-81 E5 k$ \/ M8 F
  60. Codec ID                                 : S_TEXT/UTF8. o4 y  U* Y6 |% q8 B: |( A
  61. Codec ID/Info                            : UTF-8 Plain Text
    2 Y0 A: A, Y) g9 w) i
  62. Language                                 : English
    0 P4 V  R  G$ T) U, K1 x, T) R
  63. Default                                  : No
    & g" y( d: c1 z# p+ j+ \
  64. Forced                                   : No
    . q  d. \" H% i8 n* E3 T$ K
  65. Statistics Tags Issue                    : no_variable_data 1970-01-01 00:00:00 / no_variable_data 2010-02-22 21:41:29& `9 a6 f) @9 y& r9 \# z
  66. FromStats_BitRate                        : 71
    0 O/ e% z* q* S
  67. FromStats_Duration                       : 01:39:25.376000000
    " B1 s( f& _6 |1 m8 m7 F
  68. FromStats_FrameCount                     : 1373  Y6 Z/ b4 b, i
  69. FromStats_StreamSize                     : 53464
    3 r% a2 K: p7 f: ~& O) m1 W' K& @

  70. $ x6 b& N( T( o" Y
  71. Menu
    + i# f- U* N+ Z" _) ~4 U
  72. 00:00:00.000                             : en:Chapter 014 a+ @7 d9 h. m
  73. 00:14:32.206                             : en:Chapter 02
    # c$ j2 c: m" ^- ?: t
  74. 00:33:59.622                             : en:Chapter 03
    9 J" Y& _; ]- j9 S1 e+ `9 \0 t
  75. 00:43:22.101                             : en:Chapter 04
    8 r  f3 f7 ]" s* U
  76. 00:56:15.957                             : en:Chapter 05
    / f! k8 c% A# T% `% G
  77. 01:12:33.892                             : en:Chapter 06
    0 H# h2 r6 U% r  A+ W( K+ t9 `& j
  78. 01:22:42.542                             : en:Chapter 07# d& G+ O( R* f0 b8 A
  79. 01:32:18.826                             : en:Chapter 08
复制代码
, R% Y' @2 x( N5 l' @. b; [
谋杀/凶手 Murder.1930.720p.BluRay.X264-AMIABLE 6.56GB-2.png
- t+ R5 ^3 x/ R5 L: u: V+ v) w6 C$ F3 v
- {( B9 U, d' Q. [+ |
( ?; p7 F7 p& l+ S
! x+ P6 \$ u& d/ W6 @8 s6 u4 v
  Q6 a) W6 B9 h2 H
& A0 o2 h' o5 b" d% u9 p. |  }/ v
VIP会员免费任意下载本站所有资源!---点击开通
回复

使用道具 举报

级别:一线明星 Lv.8

注册时间
2019-4-24
最后登录
2020-1-18
听众
14
收听
0
主题
0
蓝光币
257 枚
贡献
0 点
发表于 2019-9-17 08:47:17 | 显示全部楼层
楼主发贴辛苦了,谢谢楼主分享!我觉得中国高清电影网是注册对了!
VIP会员免费任意下载本站所有资源!---点击开通
回复

使用道具 举报

懒得打字嘛,点击右侧快捷回复 【右侧内容,后台自定义】
您需要登录后才可以回帖 登录 | 立即注册

本版积分规则

Archiver|手机版|小黑屋| 中国高清网 |网站地图

GMT+8, 2020-1-19 01:00 , Processed in 0.308622 second(s), 37 queries .

Powered by HDchina X3.4

Copyright 2017-2019©HDchina.All right reserved

返回顶部 联系我们