查看: 18|回复: 0

[悬疑片] 玛丽 Mary.1931.1080p.BluRay.x264-NODLABS 8.75GB

[复制链接]

 成长值: 2570

级别:资源管理组

注册时间
2017-10-20
最后登录
2019-9-21
听众
1
收听
0
主题
83009
蓝光币
49643 枚
贡献
7337 点
发表于 2019-9-13 10:44:18 | 显示全部楼层 |阅读模式
玛丽 Mary.1931.1080p.BluRay.x264-NODLABS 8.75GB-1.png

译  名 玛丽 / Murder
片  名 Mary
年  代 1931
产  地 德国 / 英国
类  别 悬疑 / 惊悚
语  言 德语
上映日期 1931-03-02
IMDb评分  6.2/10 from 560 users
IMDb链接  http://www.imdb.com/title/tt0021128
豆瓣评分 0/10 from 0 users
豆瓣链接 https://movie.douban.com/subject/3152392/
片  长 78 分钟
导  演 阿尔弗雷德·希区柯克 Alfred Hitchcock
编  剧 Clemence Dane / Herbert Juttke
主  演 阿弗莱德·阿贝尔 Alfred Abel
       Olga Tschechowa
       Paul Graetz


标  签 AlfredHitchcock | 希区柯克 | 1930s | 犯罪 | 德国 | 阿尔弗雷德·希区柯克 | 英国 | 悬疑

简  介  

  A juror in a murder trial, after voting to convict, has second thoughts and begins to investigate on his own before the execution. German version of "Murder."
  1. Video
  2. ID                                       : 1
  3. Format                                   : AVC
  4. Format/Info                              : Advanced Video Codec
  5. Format profile                           : <a href="/cdn-cgi/l/email-protection" class="__cf_email__" data-cfemail="e4ac8d838ca4a8d0cad5">[email protected]</a>
  6. Format settings                          : CABAC / 5 Ref Frames
  7. Format settings, CABAC                   : Yes
  8. Format settings, Reference frames        : 5 frames
  9. Codec ID                                 : V_MPEG4/ISO/AVC
  10. Duration                                 : 1 h 22 min
  11. Bit rate                                 : 13.7 Mb/s
  12. Width                                    : 1 440 pixels
  13. Height                                   : 1 080 pixels
  14. Display aspect ratio                     : 4:3
  15. Frame rate mode                          : Constant
  16. Frame rate                               : 23.976 (24000/1001) FPS
  17. Color space                              : YUV
  18. Chroma subsampling                       : 4:2:0
  19. Bit depth                                : 8 bits
  20. Scan type                                : Progressive
  21. Bits/(Pixel*Frame)                       : 0.368
  22. Stream size                              : 7.71 GiB (88%)
  23. Writing library                          : x264 core 158 r2984 3759fcb
  24. Encoding settings                        : cabac=1 / ref=5 / deblock=1:-3:-3 / analyse=0x3:0x113 / me=umh / subme=8 / psy=1 / psy_rd=1.10:0.00 / mixed_ref=1 / me_range=32 / chroma_me=1 / trellis=2 / 8x8dct=1 / cqm=0 / deadzone=21,11 / fast_pskip=1 / chroma_qp_offset=-2 / threads=34 / lookahead_threads=5 / sliced_threads=0 / nr=0 / decimate=1 / interlaced=0 / bluray_compat=0 / constrained_intra=0 / bframes=3 / b_pyramid=2 / b_adapt=2 / b_bias=0 / direct=3 / weightb=1 / open_gop=0 / weightp=2 / keyint=240 / keyint_min=24 / scenecut=40 / intra_refresh=0 / rc_lookahead=50 / rc=2pass / mbtree=1 / bitrate=13738 / ratetol=1.0 / qcomp=0.60 / qpmin=0 / qpmax=69 / qpstep=4 / cplxblur=20.0 / qblur=0.5 / ip_ratio=1.40 / aq=3:0.65
  25. Default                                  : Yes
  26. Forced                                   : No
  27. Statistics Tags Issue                    : no_variable_data 1970-01-01 00:00:00 / no_variable_data 2010-02-22 21:41:29
  28. FromStats_BitRate                        : 13737999
  29. FromStats_Duration                       : 01:22:06.422000000
  30. FromStats_FrameCount                     : 118116
  31. FromStats_StreamSize                     : 8459897883

  32. Audio
  33. ID                                       : 2
  34. Format                                   : DTS
  35. Format/Info                              : Digital Theater Systems
  36. Codec ID                                 : A_DTS
  37. Duration                                 : 1 h 22 min
  38. Bit rate mode                            : Constant
  39. Bit rate                                 : 1 509 kb/s
  40. Channel(s)                               : 2 channels
  41. Channel layout                           : L R
  42. Sampling rate                            : 48.0 kHz
  43. Frame rate                               : 93.750 FPS (512 SPF)
  44. Bit depth                                : 24 bits
  45. Compression mode                         : Lossy
  46. Stream size                              : 886 MiB (10%)
  47. Language                                 : German
  48. Default                                  : Yes
  49. Forced                                   : No
  50. Statistics Tags Issue                    : no_variable_data 1970-01-01 00:00:00 / no_variable_data 2010-02-22 21:41:29
  51. FromStats_BitRate                        : 1508999
  52. FromStats_Duration                       : 01:22:06.443000000
  53. FromStats_FrameCount                     : 461854
  54. FromStats_StreamSize                     : 929250248

  55. Text
  56. ID                                       : 3
  57. Format                                   : UTF-8
  58. Codec ID                                 : S_TEXT/UTF8
  59. Codec ID/Info                            : UTF-8 Plain Text
  60. Title                                    : Forced
  61. Language                                 : English
  62. Default                                  : Yes
  63. Forced                                   : Yes
  64. Statistics Tags Issue                    : no_variable_data 1970-01-01 00:00:00 / no_variable_data 2010-02-22 21:41:29
  65. FromStats_BitRate                        : 56
  66. FromStats_Duration                       : 01:21:12.535000000
  67. FromStats_FrameCount                     : 870
  68. FromStats_StreamSize                     : 34308

  69. Menu
  70. 00:00:00.000                             : en:Chapter 01
  71. 00:11:24.685                             : en:Chapter 02
  72. 00:26:16.827                             : en:Chapter 03
  73. 00:33:18.498                             : en:Chapter 04
  74. 00:43:53.591                             : en:Chapter 05
  75. 00:53:42.220                             : en:Chapter 06
  76. 01:01:18.927                             : en:Chapter 07
  77. 01:11:28.994                             : en:Chapter 08
复制代码

玛丽 Mary.1931.1080p.BluRay.x264-NODLABS 8.75GB-2.png





VIP会员免费任意下载本站所有资源!---点击开通
回复

使用道具 举报

懒得打字嘛,点击右侧快捷回复 【右侧内容,后台自定义】
您需要登录后才可以回帖 登录 | 立即注册

本版积分规则

QQ|Archiver|手机版|小黑屋| 中国高清网 |网站地图

GMT+8, 2019-9-21 15:34 , Processed in 0.422650 second(s), 39 queries .

Powered by HDchina X3.4

Copyright 2017-2019©HDchina.All right reserved

返回顶部 联系我们