查看: 41|回复: 0

[喜剧片] 列宁格勒牛仔征美记/列宁格勒牛仔去美国 Leningrad.Cowboys.Go.America.1989.1080p.BluRay.x264.DTS-FGT 7.18GB

[复制链接]

 成长值: 2570

级别:资源管理组

注册时间
2017-10-20
最后登录
2019-9-21
听众
1
收听
0
主题
83009
蓝光币
49625 枚
贡献
7337 点
发表于 2019-9-13 10:41:16 | 显示全部楼层 |阅读模式
列宁格勒牛仔征美记/列宁格勒牛仔去美国 Leningrad.Cowboys.Go.America.1989.1080p.BluRay.x264.DTS-FGT 7.18GB-1.png

译  名 列宁格勒牛仔征美记 / 列宁格勒牛仔去美国
片  名 Leningrad Cowboys Go America
年  代 1989
产  地 芬兰 / 瑞典
类  别 笑剧 / 音乐
语  言 芬兰语 / 英语
上映日期 1989-03-24(芬兰)
IMDb评分  7.0/10 from 6300 users
IMDb链接  http://www.imdb.com/title/tt0097728
豆瓣评分 8.4/10 from 8092 users
豆瓣链接 https://movie.douban.com/subject/1316560/
片  长 78 分钟
导  演 阿基·考里斯马基 Aki Kaurismaki
编  剧 阿基·考里斯马基 Aki Kaurismaki / Sakke J?rvenp?? / Mato Valtonen
主  演 马蒂·佩龙帕 Matti Pellonp??
       吉姆·贾木许 Jim Jarmusch
       Kari V??n?nen
       Sakke J?rvenp??
       Sakari Kuosmanen
       Silu Sepp?l?
       Mato Valtonen
       Olli Tuominen
       Richard Boes


标  签 芬兰 | 笑剧 | 音乐 | 阿基·考里斯马基 | 芬兰电影 | 1989 | AkiKaurism?ki | 列宁格勒牛仔征美记

简  介  

  列宁格勒牛仔摇滚乐队的几个成员打扮怪异,戴大墨镜,烫飞机头,夸张的火箭鞋就是他们的标志。可在他们的故乡看不见奇迹成功的希望,因而他们决议转战美国追求机遇,在行将动身的前夜,吉他手却被冻死,虽然如此,队员们还是将他装入了放满冰块的木箱中带上了旅途。此时同村的一个怪异的哑吧偷偷跟从乐队来到了纽约。纽约的机遇并不如他们设想的丰富,困窘的生活仍在继续,在他们穷途末路之时,获得了一个来自墨西哥的婚宴表演机遇。因而他们用仅剩的钱从一个美国售货员(吉姆?贾木许 Jim Jarmusch 饰)手中买了一辆旧车后继续向墨西哥进发,那边有他们最初的胡想……
  1. Video
  2. ID                                       : 1
  3. Format                                   : AVC
  4. Format/Info                              : Advanced Video Codec
  5. Format profile                           : <a href="/cdn-cgi/l/email-protection" class="__cf_email__" data-cfemail="8fc7e6e8e7cfc3bba1be">[email protected]</a>
  6. Format settings                          : CABAC / 4 Ref Frames
  7. Format settings, CABAC                   : Yes
  8. Format settings, Reference frames        : 4 frames
  9. Codec ID                                 : V_MPEG4/ISO/AVC
  10. Duration                                 : 1 h 19 min
  11. Bit rate                                 : 11.5 Mb/s
  12. Width                                    : 1 920 pixels
  13. Height                                   : 1 036 pixels
  14. Display aspect ratio                     : 1.85:1
  15. Frame rate mode                          : Constant
  16. Frame rate                               : 23.976 (24000/1001) FPS
  17. Color space                              : YUV
  18. Chroma subsampling                       : 4:2:0
  19. Bit depth                                : 8 bits
  20. Scan type                                : Progressive
  21. Bits/(Pixel*Frame)                       : 0.241
  22. Stream size                              : 6.35 GiB (88%)
  23. Title                                    : Leningrad.Cowboys.Go.America.1989.1080p.BluRay.x264.DTS-FGT
  24. Writing library                          : x264 core 148 r2795M aaa9aa8
  25. Encoding settings                        : cabac=1 / ref=4 / deblock=1:-2:-2 / analyse=0x3:0x113 / me=umh / subme=9 / psy=1 / psy_rd=1.00:0.15 / mixed_ref=1 / me_range=16 / chroma_me=1 / trellis=2 / 8x8dct=1 / cqm=0 / deadzone=21,11 / fast_pskip=1 / chroma_qp_offset=-3 / threads=24 / lookahead_threads=3 / sliced_threads=0 / nr=0 / decimate=1 / interlaced=0 / bluray_compat=0 / constrained_intra=0 / bframes=3 / b_pyramid=2 / b_adapt=1 / b_bias=0 / direct=3 / weightb=1 / open_gop=0 / weightp=2 / keyint=250 / keyint_min=25 / scenecut=40 / intra_refresh=0 / rc_lookahead=50 / rc=2pass / mbtree=1 / bitrate=11500 / ratetol=1.0 / qcomp=0.60 / qpmin=0 / qpmax=69 / qpstep=4 / cplxblur=20.0 / qblur=0.5 / vbv_maxrate=31250 / vbv_bufsize=31250 / nal_hrd=none / filler=0 / ip_ratio=1.40 / aq=1:1.00
  26. Language                                 : English
  27. Default                                  : Yes
  28. Forced                                   : No

  29. Audio
  30. ID                                       : 2
  31. Format                                   : DTS
  32. Format/Info                              : Digital Theater Systems
  33. Codec ID                                 : A_DTS
  34. Duration                                 : 1 h 19 min
  35. Bit rate mode                            : Constant
  36. Bit rate                                 : 1 509 kb/s
  37. Channel(s)                               : 6 channels
  38. Channel layout                           : C L R Ls Rs LFE
  39. Sampling rate                            : 48.0 kHz
  40. Frame rate                               : 93.750 FPS (512 SPF)
  41. Bit depth                                : 24 bits
  42. Compression mode                         : Lossy
  43. Stream size                              : 853 MiB (12%)
  44. Title                                    : Leningrad.Cowboys.Go.America.1989.1080p.BluRay.x264.DTS-FGT
  45. Language                                 : English
  46. Default                                  : Yes
  47. Forced                                   : No

  48. Text
  49. ID                                       : 3
  50. Format                                   : UTF-8
  51. Codec ID                                 : S_TEXT/UTF8
  52. Codec ID/Info                            : UTF-8 Plain Text
  53. Duration                                 : 7 min 0 s
  54. Bit rate                                 : 13 b/s
  55. Count of elements                        : 23
  56. Stream size                              : 710 Bytes (0%)
  57. Title                                    : FORCED
  58. Language                                 : English
  59. Default                                  : Yes
  60. Forced                                   : Yes

  61. Menu
  62. 00:00:00.000                             : en:Chapter 01
  63. 00:06:13.623                             : en:Chapter 02
  64. 00:09:51.299                             : en:Chapter 03
  65. 00:15:24.090                             : en:Chapter 04
  66. 00:20:55.921                             : en:Chapter 05
  67. 00:25:23.814                             : en:Chapter 06
  68. 00:30:43.091                             : en:Chapter 07
  69. 00:35:00.140                             : en:Chapter 08
  70. 00:40:13.578                             : en:Chapter 09
  71. 00:45:39.237                             : en:Chapter 10
  72. 00:50:08.214                             : en:Chapter 11
  73. 00:53:54.982                             : en:Chapter 12
  74. 01:00:17.280                             : en:Chapter 13
  75. 01:05:11.866                             : en:Chapter 14
  76. 01:10:55.209                             : en:Chapter 15
  77. 01:15:59.013                             : en:Chapter 16
复制代码

列宁格勒牛仔征美记/列宁格勒牛仔去美国 Leningrad.Cowboys.Go.America.1989.1080p.BluRay.x264.DTS-FGT 7.18GB-2.png 列宁格勒牛仔征美记/列宁格勒牛仔去美国 Leningrad.Cowboys.Go.America.1989.1080p.BluRay.x264.DTS-FGT 7.18GB-3.png 列宁格勒牛仔征美记/列宁格勒牛仔去美国 Leningrad.Cowboys.Go.America.1989.1080p.BluRay.x264.DTS-FGT 7.18GB-4.png






VIP会员免费任意下载本站所有资源!---点击开通
回复

使用道具 举报

懒得打字嘛,点击右侧快捷回复 【右侧内容,后台自定义】
您需要登录后才可以回帖 登录 | 立即注册

本版积分规则

QQ|Archiver|手机版|小黑屋| 中国高清网 |网站地图

GMT+8, 2019-9-21 14:55 , Processed in 0.411588 second(s), 39 queries .

Powered by HDchina X3.4

Copyright 2017-2019©HDchina.All right reserved

返回顶部 联系我们