查看: 56|回复: 1

[剧情片] 视死如归/缅甸浴血战 Merrills.Marauders.1962.1080p.BluRay.x264.DTS-FGT 8.91GB

[复制链接]

 成长值: 2570

级别:资源管理组

注册时间
2017-10-20
最后登录
2019-9-21
听众
1
收听
0
主题
83009
蓝光币
49645 枚
贡献
7337 点
发表于 2019-9-13 10:40:15 | 显示全部楼层 |阅读模式
视死如归/缅甸浴血战 Merrills.Marauders.1962.1080p.BluRay.x264.DTS-FGT 8.91GB-1.png

译  名 视死如归 / 缅甸浴血战
片  名 Merrill's Marauders
年  代 1962
产  地 美国
类  别 剧情 / 战争 / 冒险
语  言 英语
上映日期 1962-03-16
IMDb评分  6.7/10 from 1860 users
IMDb链接  http://www.imdb.com/title/tt0056234
豆瓣评分 0/10 from 0 users
豆瓣链接 https://movie.douban.com/subject/1299899/
片  长 98 分钟
导  演 Samuel Fuller
编  剧 Milton Sperling / Samuel Fuller
主  演 Jeff Chandler
       Ty Hardin
       Peter Brown


标  签 战争 | 美国 | 二战 | 塞缪尔·富勒 | 美国电影 | 1960s | Samuel_Fuller | 1962

简  介  

  杰夫·钱德勒在这部一九六二年的战争片中饰演二次大战的将军法兰克梅洛尔,勇敢率领麾下三千名自愿兵在缅甸的森林中敏捷杀出日本军队的重围。
  1. Video
  2. ID                                       : 1
  3. Format                                   : AVC
  4. Format/Info                              : Advanced Video Codec
  5. Format profile                           : <a href="/cdn-cgi/l/email-protection" class="__cf_email__" data-cfemail="155d7c727d5559213b24">[email protected]</a>
  6. Format settings                          : CABAC / 4 Ref Frames
  7. Format settings, CABAC                   : Yes
  8. Format settings, Reference frames        : 4 frames
  9. Codec ID                                 : V_MPEG4/ISO/AVC
  10. Duration                                 : 1 h 38 min
  11. Bit rate                                 : 11.5 Mb/s
  12. Width                                    : 1 920 pixels
  13. Height                                   : 816 pixels
  14. Display aspect ratio                     : 2.35:1
  15. Frame rate mode                          : Constant
  16. Frame rate                               : 23.976 (24000/1001) FPS
  17. Color space                              : YUV
  18. Chroma subsampling                       : 4:2:0
  19. Bit depth                                : 8 bits
  20. Scan type                                : Progressive
  21. Bits/(Pixel*Frame)                       : 0.306
  22. Stream size                              : 7.88 GiB (88%)
  23. Title                                    : Merrills.Marauders.1962.1080p.BluRay.x264.DTS-FGT
  24. Writing library                          : x264 core 148 r2795M aaa9aa8
  25. Encoding settings                        : cabac=1 / ref=4 / deblock=1:-2:-2 / analyse=0x3:0x113 / me=umh / subme=9 / psy=1 / psy_rd=1.00:0.15 / mixed_ref=1 / me_range=16 / chroma_me=1 / trellis=2 / 8x8dct=1 / cqm=0 / deadzone=21,11 / fast_pskip=1 / chroma_qp_offset=-3 / threads=24 / lookahead_threads=3 / sliced_threads=0 / nr=0 / decimate=1 / interlaced=0 / bluray_compat=0 / constrained_intra=0 / bframes=3 / b_pyramid=2 / b_adapt=1 / b_bias=0 / direct=3 / weightb=1 / open_gop=0 / weightp=2 / keyint=250 / keyint_min=25 / scenecut=40 / intra_refresh=0 / rc_lookahead=50 / rc=2pass / mbtree=1 / bitrate=11500 / ratetol=1.0 / qcomp=0.60 / qpmin=0 / qpmax=69 / qpstep=4 / cplxblur=20.0 / qblur=0.5 / vbv_maxrate=31250 / vbv_bufsize=31250 / nal_hrd=none / filler=0 / ip_ratio=1.40 / aq=1:1.00
  26. Language                                 : English
  27. Default                                  : Yes
  28. Forced                                   : No

  29. Audio
  30. ID                                       : 2
  31. Format                                   : DTS
  32. Format/Info                              : Digital Theater Systems
  33. Codec ID                                 : A_DTS
  34. Duration                                 : 1 h 38 min
  35. Bit rate mode                            : Constant
  36. Bit rate                                 : 1 509 kb/s
  37. Channel(s)                               : 2 channels
  38. Channel layout                           : L R
  39. Sampling rate                            : 48.0 kHz
  40. Frame rate                               : 93.750 FPS (512 SPF)
  41. Bit depth                                : 24 bits
  42. Compression mode                         : Lossy
  43. Stream size                              : 1.03 GiB (12%)
  44. Title                                    : Merrills.Marauders.1962.1080p.BluRay.x264.DTS-FGT
  45. Language                                 : English
  46. Default                                  : Yes
  47. Forced                                   : No

  48. Text
  49. ID                                       : 3
  50. Format                                   : UTF-8
  51. Codec ID                                 : S_TEXT/UTF8
  52. Codec ID/Info                            : UTF-8 Plain Text
  53. Duration                                 : 1 h 35 min
  54. Bit rate                                 : 41 b/s
  55. Count of elements                        : 1081
  56. Stream size                              : 28.8 KiB (0%)
  57. Language                                 : English
  58. Default                                  : Yes
  59. Forced                                   : No

  60. Menu
  61. 00:00:00.000                             : en:Chapter 01
  62. 00:01:24.167                             : en:Chapter 02
  63. 00:04:33.273                             : en:Chapter 03
  64. 00:07:33.244                             : en:Chapter 04
  65. 00:10:38.095                             : en:Chapter 05
  66. 00:12:36.464                             : en:Chapter 06
  67. 00:16:07.341                             : en:Chapter 07
  68. 00:19:06.895                             : en:Chapter 08
  69. 00:23:49.302                             : en:Chapter 09
  70. 00:26:08.066                             : en:Chapter 10
  71. 00:29:17.714                             : en:Chapter 11
  72. 00:33:53.489                             : en:Chapter 12
  73. 00:37:25.326                             : en:Chapter 13
  74. 00:42:27.920                             : en:Chapter 14
  75. 00:46:26.325                             : en:Chapter 15
  76. 00:50:23.311                             : en:Chapter 16
  77. 00:55:48.762                             : en:Chapter 17
  78. 00:57:47.505                             : en:Chapter 18
  79. 01:00:59.447                             : en:Chapter 19
  80. 01:04:01.546                             : en:Chapter 20
  81. 01:08:45.454                             : en:Chapter 21
  82. 01:13:27.694                             : en:Chapter 22
  83. 01:19:29.055                             : en:Chapter 23
  84. 01:21:44.566                             : en:Chapter 24
  85. 01:24:16.259                             : en:Chapter 25
  86. 01:29:53.930                             : en:Chapter 26
  87. 01:34:46.055                             : en:Chapter 27
  88. 01:37:55.452                             : en:Chapter 28
  89. 01:38:03.335                             : en:Chapter 29
复制代码

视死如归/缅甸浴血战 Merrills.Marauders.1962.1080p.BluRay.x264.DTS-FGT 8.91GB-2.png 视死如归/缅甸浴血战 Merrills.Marauders.1962.1080p.BluRay.x264.DTS-FGT 8.91GB-3.png 视死如归/缅甸浴血战 Merrills.Marauders.1962.1080p.BluRay.x264.DTS-FGT 8.91GB-4.png






VIP会员免费任意下载本站所有资源!---点击开通
回复

使用道具 举报

级别:荣升主角 Lv.5

注册时间
2019-1-23
最后登录
2019-9-21
听众
14
收听
0
主题
0
蓝光币
686 枚
贡献
0 点
发表于 7 天前 | 显示全部楼层

楼主太厉害了!楼主,电影应该很好看我觉得中国高清电影网真是个好地方!
VIP会员免费任意下载本站所有资源!---点击开通
回复

使用道具 举报

懒得打字嘛,点击右侧快捷回复 【右侧内容,后台自定义】
您需要登录后才可以回帖 登录 | 立即注册

本版积分规则

QQ|Archiver|手机版|小黑屋| 中国高清网 |网站地图

GMT+8, 2019-9-21 15:42 , Processed in 0.637348 second(s), 39 queries .

Powered by HDchina X3.4

Copyright 2017-2019©HDchina.All right reserved

返回顶部 联系我们