查看: 84|回复: 1

[惊悚片] 我不是杀手 Non.Sono.Un.Assassino.2019.ITALIAN.1080p.BluRay.x264.DTS-FGT 10.10GB

[复制链接]

 成长值: 2570

级别:资源管理组

注册时间
2017-10-20
最后登录
2019-9-21
听众
1
收听
0
主题
83009
蓝光币
49639 枚
贡献
7337 点
发表于 2019-9-13 10:36:47 | 显示全部楼层 |阅读模式
我不是杀手 Non.Sono.Un.Assassino.2019.ITALIAN.1080p.BluRay.x264.DTS-FGT 10.10GB-1.png

译  名 我不是杀手 / I'M NOT A KILLER
片  名 Non sono un assassino
年  代 2019
产  地 意大利
类  别 惊悚
语  言 意大利语
上映日期 2019-04-30(意大利)
IMDb评分  6.4/10 from 77 users
IMDb链接  http://www.imdb.com/title/tt8271188
豆瓣评分 0/10 from 0 users
豆瓣链接 https://movie.douban.com/subject/33451766/
导  演 Andrea Zaccariello
编  剧 Francesco Caringella / 保罗·罗西 Paolo Rossi / Andrea Zaccariello
主  演 里卡多·斯卡马乔 Riccardo Scamarcio
       阿莱西奥·博尼 Alessio Boni
       克劳迪亚·杰里尼 Claudia Gerini
       芭芭拉·朗奇 Barbara Ronchi
       Katsiaryna Shulha
       Silvia D'Amico
       爱德华多·佩谢 Edoardo Pesce
       莎拉·菲尔伯鲍姆 Sarah Felberbaum


简  介  

  Deputy Police Superintendent Francesco Prencipe is on his way to meet his best friend, Judge Giovanni Mastropaolo, which he hasn't seen for almost two years. That morning the judge is found...
  1. Video
  2. ID                                       : 1
  3. Format                                   : AVC
  4. Format/Info                              : Advanced Video Codec
  5. Format profile                           : <a href="/cdn-cgi/l/email-protection" class="__cf_email__" data-cfemail="a5edccc2cde5e9918b94">[email protected]</a>
  6. Format settings                          : CABAC / 4 Ref Frames
  7. Format settings, CABAC                   : Yes
  8. Format settings, Reference frames        : 4 frames
  9. Codec ID                                 : V_MPEG4/ISO/AVC
  10. Duration                                 : 1 h 51 min
  11. Bit rate                                 : 11.5 Mb/s
  12. Width                                    : 1 920 pixels
  13. Height                                   : 800 pixels
  14. Display aspect ratio                     : 2.40:1
  15. Frame rate mode                          : Constant
  16. Frame rate                               : 24.000 FPS
  17. Color space                              : YUV
  18. Chroma subsampling                       : 4:2:0
  19. Bit depth                                : 8 bits
  20. Scan type                                : Progressive
  21. Bits/(Pixel*Frame)                       : 0.312
  22. Stream size                              : 8.93 GiB (88%)
  23. Title                                    : Non.Sono.Un.Assassino.2019.ITALIAN.1080p.BluRay.x264.DTS-FGT
  24. Writing library                          : x264 core 148 r2795M aaa9aa8
  25. Encoding settings                        : cabac=1 / ref=4 / deblock=1:-2:-2 / analyse=0x3:0x113 / me=umh / subme=9 / psy=1 / psy_rd=1.00:0.15 / mixed_ref=1 / me_range=16 / chroma_me=1 / trellis=2 / 8x8dct=1 / cqm=0 / deadzone=21,11 / fast_pskip=1 / chroma_qp_offset=-3 / threads=24 / lookahead_threads=3 / sliced_threads=0 / nr=0 / decimate=1 / interlaced=0 / bluray_compat=0 / constrained_intra=0 / bframes=3 / b_pyramid=2 / b_adapt=1 / b_bias=0 / direct=3 / weightb=1 / open_gop=0 / weightp=2 / keyint=250 / keyint_min=25 / scenecut=40 / intra_refresh=0 / rc_lookahead=50 / rc=2pass / mbtree=1 / bitrate=11500 / ratetol=1.0 / qcomp=0.60 / qpmin=0 / qpmax=69 / qpstep=4 / cplxblur=20.0 / qblur=0.5 / vbv_maxrate=31250 / vbv_bufsize=31250 / nal_hrd=none / filler=0 / ip_ratio=1.40 / aq=1:1.00
  26. Language                                 : Italian
  27. Default                                  : Yes
  28. Forced                                   : No

  29. Audio
  30. ID                                       : 2
  31. Format                                   : DTS
  32. Format/Info                              : Digital Theater Systems
  33. Codec ID                                 : A_DTS
  34. Duration                                 : 1 h 51 min
  35. Bit rate mode                            : Constant
  36. Bit rate                                 : 1 509 kb/s
  37. Channel(s)                               : 6 channels
  38. Channel layout                           : C L R Ls Rs LFE
  39. Sampling rate                            : 48.0 kHz
  40. Frame rate                               : 93.750 FPS (512 SPF)
  41. Bit depth                                : 24 bits
  42. Compression mode                         : Lossy
  43. Stream size                              : 1.17 GiB (12%)
  44. Title                                    : Non.Sono.Un.Assassino.2019.ITALIAN.1080p.BluRay.x264.DTS-FGT
  45. Language                                 : Italian
  46. Default                                  : Yes
  47. Forced                                   : No

  48. Text
  49. ID                                       : 3
  50. Format                                   : UTF-8
  51. Codec ID                                 : S_TEXT/UTF8
  52. Codec ID/Info                            : UTF-8 Plain Text
  53. Duration                                 : 1 h 45 min
  54. Bit rate                                 : 47 b/s
  55. Count of elements                        : 1112
  56. Stream size                              : 36.8 KiB (0%)
  57. Language                                 : English
  58. Default                                  : Yes
  59. Forced                                   : No

  60. Menu
  61. 00:00:00.000                             : en:In Prima Linea
  62. 00:07:14.875                             : en:Il Giudice Ucciso
  63. 00:14:52.542                             : en:Una Vecchia Amicizia
  64. 00:23:24.833                             : en:Il Diavolo Esiste
  65. 00:29:43.083                             : en:Tutte Le Sue Donne
  66. 00:38:36.042                             : en:Imputato
  67. 00:49:07.750                             : en:In Carcere
  68. 00:58:52.708                             : en:L\'avvocato Della Difesa
  69. 01:09:26.958                             : en:Teorema U.C.T.C
  70. 01:21:35.917                             : en:Il Cactus
  71. 01:30:59.208                             : en:A Volto Scoperto
  72. 01:38:38.667                             : en:Il Cassetto Segreto
复制代码

我不是杀手 Non.Sono.Un.Assassino.2019.ITALIAN.1080p.BluRay.x264.DTS-FGT 10.10GB-2.png 我不是杀手 Non.Sono.Un.Assassino.2019.ITALIAN.1080p.BluRay.x264.DTS-FGT 10.10GB-3.png 我不是杀手 Non.Sono.Un.Assassino.2019.ITALIAN.1080p.BluRay.x264.DTS-FGT 10.10GB-4.png






VIP会员免费任意下载本站所有资源!---点击开通
回复

使用道具 举报

级别:荣升主角 Lv.5

注册时间
2019-1-23
最后登录
2019-9-21
听众
14
收听
0
主题
0
蓝光币
686 枚
贡献
0 点
发表于 7 天前 | 显示全部楼层

楼主太厉害了!楼主,电影应该很好看我觉得中国高清电影网真是个好地方!
VIP会员免费任意下载本站所有资源!---点击开通
回复

使用道具 举报

懒得打字嘛,点击右侧快捷回复 【右侧内容,后台自定义】
您需要登录后才可以回帖 登录 | 立即注册

本版积分规则

QQ|Archiver|手机版|小黑屋| 中国高清网 |网站地图

GMT+8, 2019-9-21 15:15 , Processed in 0.393846 second(s), 39 queries .

Powered by HDchina X3.4

Copyright 2017-2019©HDchina.All right reserved

返回顶部 联系我们