查看: 19|回复: 0

[剧情片] 风中划船 Rowing.With.The.Wind.1988.1080p.BluRay.x264.DTS-FGT 7.97GB

[复制链接]

 成长值: 2570

级别:资源管理组

注册时间
2017-10-20
最后登录
2019-9-21
听众
1
收听
0
主题
83009
蓝光币
49621 枚
贡献
7337 点
发表于 2019-9-13 10:35:14 | 显示全部楼层 |阅读模式
风中划船 Rowing.With.The.Wind.1988.1080p.BluRay.x264.DTS-FGT 7.97GB-1.png

译  名 风中划船 / Rowing in the Wind / Rowing with the Wind / 浪漫骑士
片  名 Remando al viento
年  代 1988
产  地 西班牙
类  别 剧情 / 恋爱 / 悬疑 / 可骇
语  言 英语
上映日期 1988-09-19
IMDb评分  5.9/10 from 859 users
IMDb链接  http://www.imdb.com/title/tt0093840
豆瓣评分 6.6/10 from 138 users
豆瓣链接 https://movie.douban.com/subject/1292725/
片  长 126 分钟
导  演 Gonzalo Suárez
编  剧 Gonzalo Suárez
主  演 Hugh Grant
       Lizzy McInnerny
       Valentine Pelka
       伊丽莎白·赫利 Elizabeth Hurley
       何塞·路易斯·戈麦兹 José Luis Gómez
       Virginia Mataix
       罗南·维博特 Ronan Vibert
       Bibiana Fernández
       Josep Maria Pou


标  签 HughGrant | 英国 | 列传 | 西班牙 | 诗歌电影 | 英国电影 | 恋爱 | 悬疑

简  介  

  两个英国墨客—玛丽?雪莱和拜伦—因各种身分分开了英国。旅途中玛丽想起了熟悉丈夫、与他坠入情网并终极随他而去的进程。同时她也回忆起与拜伦的了解……但她特别没法忘记1816年11月的阿谁夜晚,阿谁与众文人相聚互诉可骇故事的夜晚,阿谁诞生了著名科学怪人“弗兰肯斯坦”的夜晚……
  1. Video
  2. ID                                       : 1
  3. Format                                   : AVC
  4. Format/Info                              : Advanced Video Codec
  5. Format profile                           : <a href="/cdn-cgi/l/email-protection" class="__cf_email__" data-cfemail="bcf4d5dbd4fcf088928d">[email protected]</a>
  6. Format settings                          : CABAC / 4 Ref Frames
  7. Format settings, CABAC                   : Yes
  8. Format settings, Reference frames        : 4 frames
  9. Codec ID                                 : V_MPEG4/ISO/AVC
  10. Duration                                 : 1 h 35 min
  11. Bit rate                                 : 11.5 Mb/s
  12. Width                                    : 1 796 pixels
  13. Height                                   : 1 078 pixels
  14. Display aspect ratio                     : 5:3
  15. Frame rate mode                          : Constant
  16. Frame rate                               : 24.000 FPS
  17. Color space                              : YUV
  18. Chroma subsampling                       : 4:2:0
  19. Bit depth                                : 8 bits
  20. Scan type                                : Progressive
  21. Bits/(Pixel*Frame)                       : 0.247
  22. Stream size                              : 7.63 GiB (96%)
  23. Title                                    : Rowing.With.The.Wind.1988.1080p.BluRay.x264.DTS-FGT
  24. Writing library                          : x264 core 148 r2795M aaa9aa8
  25. Encoding settings                        : cabac=1 / ref=4 / deblock=1:-2:-2 / analyse=0x3:0x113 / me=umh / subme=9 / psy=1 / psy_rd=1.00:0.15 / mixed_ref=1 / me_range=16 / chroma_me=1 / trellis=2 / 8x8dct=1 / cqm=0 / deadzone=21,11 / fast_pskip=1 / chroma_qp_offset=-3 / threads=24 / lookahead_threads=3 / sliced_threads=0 / nr=0 / decimate=1 / interlaced=0 / bluray_compat=0 / constrained_intra=0 / bframes=3 / b_pyramid=2 / b_adapt=1 / b_bias=0 / direct=3 / weightb=1 / open_gop=0 / weightp=2 / keyint=250 / keyint_min=25 / scenecut=40 / intra_refresh=0 / rc_lookahead=50 / rc=2pass / mbtree=1 / bitrate=11500 / ratetol=1.0 / qcomp=0.60 / qpmin=0 / qpmax=69 / qpstep=4 / cplxblur=20.0 / qblur=0.5 / vbv_maxrate=31250 / vbv_bufsize=31250 / nal_hrd=none / filler=0 / ip_ratio=1.40 / aq=1:1.00
  26. Language                                 : English
  27. Default                                  : Yes
  28. Forced                                   : No

  29. Audio
  30. ID                                       : 2
  31. Format                                   : DTS
  32. Format/Info                              : Digital Theater Systems
  33. Codec ID                                 : A_DTS
  34. Duration                                 : 1 h 35 min
  35. Bit rate mode                            : Constant
  36. Bit rate                                 : 510 kb/s
  37. Channel(s)                               : 2 channels
  38. Channel layout                           : L R
  39. Sampling rate                            : 48.0 kHz
  40. Frame rate                               : 93.750 FPS (512 SPF)
  41. Bit depth                                : 16 bits
  42. Compression mode                         : Lossy
  43. Stream size                              : 347 MiB (4%)
  44. Title                                    : Rowing.With.The.Wind.1988.1080p.BluRay.x264.DTS-FGT
  45. Language                                 : English
  46. Default                                  : Yes
  47. Forced                                   : No

  48. Menu
  49. 00:00:00.000                             : en:Chapter 01
  50. 00:08:23.500                             : en:Chapter 02
  51. 00:16:18.625                             : en:Chapter 03
  52. 00:25:36.375                             : en:Chapter 04
  53. 00:32:24.500                             : en:Chapter 05
  54. 00:38:36.250                             : en:Chapter 06
  55. 00:46:39.875                             : en:Chapter 07
  56. 00:56:12.125                             : en:Chapter 08
  57. 01:05:32.375                             : en:Chapter 09
  58. 01:11:12.625                             : en:Chapter 10
  59. 01:20:58.875                             : en:Chapter 11
  60. 01:27:34.250                             : en:Chapter 12
  61. 01:33:40.000                             : en:Chapter 13
复制代码

风中划船 Rowing.With.The.Wind.1988.1080p.BluRay.x264.DTS-FGT 7.97GB-2.png 风中划船 Rowing.With.The.Wind.1988.1080p.BluRay.x264.DTS-FGT 7.97GB-3.png 风中划船 Rowing.With.The.Wind.1988.1080p.BluRay.x264.DTS-FGT 7.97GB-4.png






VIP会员免费任意下载本站所有资源!---点击开通
回复

使用道具 举报

懒得打字嘛,点击右侧快捷回复 【右侧内容,后台自定义】
您需要登录后才可以回帖 登录 | 立即注册

本版积分规则

QQ|Archiver|手机版|小黑屋| 中国高清网 |网站地图

GMT+8, 2019-9-21 14:42 , Processed in 0.411987 second(s), 39 queries .

Powered by HDchina X3.4

Copyright 2017-2019©HDchina.All right reserved

返回顶部 联系我们