查看: 28|回复: 0

[爱情片] 热情暑假/夏日狂欢 Summer.Holiday.1963.1080p.BluRay.x264.DTS-FGT 9.83GB

[复制链接]

 成长值: 2570

级别:资源管理组

注册时间
2017-10-20
最后登录
2019-9-21
听众
1
收听
0
主题
83009
蓝光币
49641 枚
贡献
7337 点
发表于 2019-9-13 10:34:04 | 显示全部楼层 |阅读模式
热情暑假/夏日狂欢 Summer.Holiday.1963.1080p.BluRay.x264.DTS-FGT 9.83GB-1.png

译  名 热情暑假 / 夏日狂欢(港)
片  名 Summer Holiday
年  代 1963
产  地 英国
类  别 恋爱 / 音乐
语  言 英语
上映日期 1963
IMDb评分  6.1/10 from 1219 users
IMDb链接  http://www.imdb.com/title/tt0057541
豆瓣评分 0/10 from 0 users
豆瓣链接 https://movie.douban.com/subject/5058644/
片  长 107 分钟
导  演 Peter Yates
编  剧 Peter Myers
主  演 克利夫·理查 Cliff Richard


标  签 音乐 | 歌舞 | Cliff_Richard | 1963 | 英国 | 美國 | 克利夫·理查 | CliffRichard

简  介  

  暂无相关剧情先容
  1. Video
  2. ID                                       : 1
  3. Format                                   : AVC
  4. Format/Info                              : Advanced Video Codec
  5. Format profile                           : <a href="/cdn-cgi/l/email-protection" class="__cf_email__" data-cfemail="0d45646a654d4139233c">[email protected]</a>
  6. Format settings                          : CABAC / 4 Ref Frames
  7. Format settings, CABAC                   : Yes
  8. Format settings, Reference frames        : 4 frames
  9. Codec ID                                 : V_MPEG4/ISO/AVC
  10. Duration                                 : 1 h 48 min
  11. Bit rate                                 : 11.5 Mb/s
  12. Width                                    : 1 920 pixels
  13. Height                                   : 816 pixels
  14. Display aspect ratio                     : 2.35:1
  15. Frame rate mode                          : Constant
  16. Frame rate                               : 24.000 FPS
  17. Color space                              : YUV
  18. Chroma subsampling                       : 4:2:0
  19. Bit depth                                : 8 bits
  20. Scan type                                : Progressive
  21. Bits/(Pixel*Frame)                       : 0.306
  22. Stream size                              : 8.69 GiB (88%)
  23. Title                                    : Summer.Holiday.1963.1080p.BluRay.x264.DTS-FGT
  24. Writing library                          : x264 core 148 r2795M aaa9aa8
  25. Encoding settings                        : cabac=1 / ref=4 / deblock=1:-2:-2 / analyse=0x3:0x113 / me=umh / subme=9 / psy=1 / psy_rd=1.00:0.15 / mixed_ref=1 / me_range=16 / chroma_me=1 / trellis=2 / 8x8dct=1 / cqm=0 / deadzone=21,11 / fast_pskip=1 / chroma_qp_offset=-3 / threads=24 / lookahead_threads=3 / sliced_threads=0 / nr=0 / decimate=1 / interlaced=0 / bluray_compat=0 / constrained_intra=0 / bframes=3 / b_pyramid=2 / b_adapt=1 / b_bias=0 / direct=3 / weightb=1 / open_gop=0 / weightp=2 / keyint=250 / keyint_min=25 / scenecut=40 / intra_refresh=0 / rc_lookahead=50 / rc=2pass / mbtree=1 / bitrate=11500 / ratetol=1.0 / qcomp=0.60 / qpmin=0 / qpmax=69 / qpstep=4 / cplxblur=20.0 / qblur=0.5 / vbv_maxrate=31250 / vbv_bufsize=31250 / nal_hrd=none / filler=0 / ip_ratio=1.40 / aq=1:1.00
  26. Language                                 : English
  27. Default                                  : Yes
  28. Forced                                   : No

  29. Audio
  30. ID                                       : 2
  31. Format                                   : DTS
  32. Format/Info                              : Digital Theater Systems
  33. Codec ID                                 : A_DTS
  34. Duration                                 : 1 h 48 min
  35. Bit rate mode                            : Constant
  36. Bit rate                                 : 1 509 kb/s
  37. Channel(s)                               : 2 channels
  38. Channel layout                           : L R
  39. Sampling rate                            : 48.0 kHz
  40. Frame rate                               : 93.750 FPS (512 SPF)
  41. Bit depth                                : 16 bits
  42. Compression mode                         : Lossy
  43. Stream size                              : 1.14 GiB (12%)
  44. Title                                    : Summer.Holiday.1963.1080p.BluRay.x264.DTS-FGT
  45. Language                                 : English
  46. Default                                  : Yes
  47. Forced                                   : No

  48. Text
  49. ID                                       : 3
  50. Format                                   : UTF-8
  51. Codec ID                                 : S_TEXT/UTF8
  52. Codec ID/Info                            : UTF-8 Plain Text
  53. Duration                                 : 1 h 46 min
  54. Bit rate                                 : 71 b/s
  55. Count of elements                        : 1560
  56. Stream size                              : 55.5 KiB (0%)
  57. Language                                 : English
  58. Default                                  : Yes
  59. Forced                                   : No

  60. Menu
  61. 00:00:00.000                             : en:Chapter 1
  62. 00:07:05.292                             : en:Chapter 2
  63. 00:17:33.750                             : en:Chapter 3
  64. 00:34:04.583                             : en:Chapter 4
  65. 00:40:34.250                             : en:Chapter 5
  66. 00:50:48.500                             : en:Chapter 6
  67. 01:05:02.375                             : en:Chapter 7
  68. 01:16:05.542                             : en:Chapter 8
  69. 01:20:49.583                             : en:Chapter 9
  70. 01:32:45.167                             : en:Chapter 10
  71. 01:38:37.750                             : en:Chapter 11
  72. 01:43:02.542                             : en:Chapter 12
复制代码

热情暑假/夏日狂欢 Summer.Holiday.1963.1080p.BluRay.x264.DTS-FGT 9.83GB-2.png 热情暑假/夏日狂欢 Summer.Holiday.1963.1080p.BluRay.x264.DTS-FGT 9.83GB-3.png 热情暑假/夏日狂欢 Summer.Holiday.1963.1080p.BluRay.x264.DTS-FGT 9.83GB-4.png






VIP会员免费任意下载本站所有资源!---点击开通
回复

使用道具 举报

懒得打字嘛,点击右侧快捷回复 【右侧内容,后台自定义】
您需要登录后才可以回帖 登录 | 立即注册

本版积分规则

QQ|Archiver|手机版|小黑屋| 中国高清网 |网站地图

GMT+8, 2019-9-21 15:23 , Processed in 0.442611 second(s), 39 queries .

Powered by HDchina X3.4

Copyright 2017-2019©HDchina.All right reserved

返回顶部 联系我们