查看: 45|回复: 0

[动画片] 阿拉丁/阿拉丁历险记 Aladdin.1992.1080p.BluRay.x264.DTS-HD.MA.7.1-SWTYBLZ 10.18GB

[复制链接]

 成长值: 2570

级别:资源管理组

注册时间
2017-10-20
最后登录
2019-9-21
听众
1
收听
0
主题
83026
蓝光币
49759 枚
贡献
7354 点
发表于 2019-9-12 20:04:29 | 显示全部楼层 |阅读模式
阿拉丁/阿拉丁历险记 Aladdin.1992.1080p.BluRay.x264.DTS-HD.MA.7.1-SWTYBLZ 10.18GB-1.png

译  名 阿拉丁 / 阿拉丁历险记
片  名 Aladdin
年  代 1992
产  地 美国
类  别 笑剧 / 动画 / 冒险
语  言 英语
上映日期 1992-11-25(美国)
IMDb评分  8.0/10 from 330431 users
IMDb链接  http://www.imdb.com/title/tt0103639
豆瓣评分 8.1/10 from 50831 users
豆瓣链接 https://movie.douban.com/subject/1299513/
片  长 90 分钟
导  演 罗恩·克莱蒙兹 Ron Clements / 约翰·马斯克 John Musker
编  剧 罗恩·克莱蒙兹 Ron Clements / 约翰·马斯克 John Musker / 泰德·艾略特 Ted Elliott / 特里·鲁西奥 Terry Rossio
主  演 斯科特·维内尔 Scott Weinger
       罗宾·威廉姆斯 Robin Williams
       琳达·拉金 Linda Larkin
       乔纳森·弗里曼 Jonathan Freeman
       弗兰克·维尔克 Frank Welker
       吉尔伯特·戈特弗雷德 Gilbert Gottfried
       查尔斯·阿德勒 Charles Adler
       杰克·安杰尔 Jack Angel
       科里·伯顿 Corey Burton
       吉姆·库宁斯 Jim Cummings
       詹妮弗·达林 Jennifer Darling
       黛比·戴瑞巴里 Debi Derryberry
       杰里·豪泽 Jerry Houser
       Vera Lockwood
       雪莉·琳恩 Sherry Lynn
       米凯·麦高万 Mickie McGowan
       菲尔·普洛克特 Phil Proctor
       布拉德·凯恩 Brad Kane
       丽娅·萨隆加 Lea Salonga
       哈尔·史姑娘 Hal Smith
       Douglas Seale
       Bruce Adler


标  签 动画 | 迪斯尼 | 美国 | 阿拉丁 | 动画片 | 1992 | 卡通 | 恋爱

简  介  

  阿拉伯少年阿拉丁不但具有忠厚的朋友山公阿布的友谊,还具有一条奇异的魔法飞毡,他们在闹市中过着无忧无虑的欢畅生活。一天,城堡里的公主厌倦了无聊透顶的皇宫生活,决议单独一人偷跑出来见识里面的十丈软红。偷跑出来的公主在闹市里碰到了阿拉丁,阿拉丁对她一见钟情。同一时辰,邪恶国师诡计操纵阿拉丁帮助自己找到能实现愿望的神灯,阿拉丁固然不愿束手待毙,因而,他的冒险之旅起头了。

获奖情况  

  第65届奥斯卡金像奖(1993)
  最好音效剪辑(提名) 马克·马基尼
  最好声响(提名) David J. Hudson / Doc Kane / Mel Metcalfe / 特里·波特
  最好原创配乐 艾伦·曼肯
  最好原创歌曲 艾伦·曼肯 / 蒂姆·赖斯
  最好原创歌曲(提名) 艾伦·曼肯 / 霍华德·阿什曼

  第47届英国电影学院奖(1994)
  电影奖 最好特别视觉结果(提名) Don Paul / Steve Goldberg
  电影奖 最好原创音乐(提名) 艾伦·曼肯

  第21届动画安妮奖(1993)
  最好动画长片
  1. Video
  2. ID                                       : 1
  3. Format                                   : AVC
  4. Format/Info                              : Advanced Video Codec
  5. Format profile                           : <a href="/cdn-cgi/l/email-protection" target="_blank">[email protected]</a>
  6. Format settings                          : CABAC / 4 Ref Frames
  7. Format settings, CABAC                   : Yes
  8. Format settings, Reference frames        : 4 frames
  9. Codec ID                                 : V_MPEG4/ISO/AVC
  10. Duration                                 : 1 h 30 min
  11. Bit rate                                 : 12.6 Mb/s
  12. Width                                    : 1 792 pixels
  13. Height                                   : 1 080 pixels
  14. Display aspect ratio                     : 5:3
  15. Frame rate mode                          : Constant
  16. Frame rate                               : 23.976 (24000/1001) FPS
  17. Color space                              : YUV
  18. Chroma subsampling                       : 4:2:0
  19. Bit depth                                : 8 bits
  20. Scan type                                : Progressive
  21. Bits/(Pixel*Frame)                       : 0.272
  22. Stream size                              : 8.00 GiB (79%)
  23. Title                                    : Aladdin.1992.1080p.BluRay.x264.DTS-HD.MA.7.1-SWTYBLZ
  24. Writing library                          : x264 core 157 r2935 545de2f
  25. Encoding settings                        : cabac=1 / ref=4 / deblock=1:1:1 / analyse=0x3:0x133 / me=umh / subme=10 / psy=1 / psy_rd=0.40:0.00 / mixed_ref=1 / me_range=48 / chroma_me=1 / trellis=2 / 8x8dct=1 / cqm=0 / deadzone=21,11 / fast_pskip=1 / chroma_qp_offset=-2 / threads=34 / lookahead_threads=8 / sliced_threads=0 / nr=0 / decimate=0 / interlaced=0 / bluray_compat=0 / constrained_intra=0 / bframes=10 / b_pyramid=2 / b_adapt=2 / b_bias=0 / direct=3 / weightb=1 / open_gop=0 / weightp=2 / keyint=250 / keyint_min=23 / scenecut=40 / intra_refresh=0 / rc_lookahead=60 / rc=crf / mbtree=1 / crf=12.0 / qcomp=0.60 / qpmin=0 / qpmax=69 / qpstep=4 / ip_ratio=1.40 / aq=1:0.60
  26. Default                                  : Yes
  27. Forced                                   : No

  28. Audio
  29. ID                                       : 2
  30. Format                                   : DTS XLL
  31. Format/Info                              : Digital Theater Systems
  32. Commercial name                          : DTS-HD Master Audio
  33. Codec ID                                 : A_DTS
  34. Duration                                 : 1 h 30 min
  35. Bit rate mode                            : Variable
  36. Bit rate                                 : 3 387 kb/s
  37. Channel(s)                               : 8 channels
  38. Channel layout                           : C L R LFE Lb Rb Lss Rss
  39. Sampling rate                            : 48.0 kHz
  40. Frame rate                               : 93.750 FPS (512 SPF)
  41. Bit depth                                : 24 bits
  42. Compression mode                         : Lossless
  43. Stream size                              : 2.15 GiB (21%)
  44. Title                                    : Aladdin.1992.1080p.BluRay.x264.DTS-HD.MA.7.1-SWTYBLZ
  45. Language                                 : English
  46. Default                                  : No
  47. Forced                                   : No

  48. Text #1
  49. ID                                       : 3
  50. Format                                   : UTF-8
  51. Codec ID                                 : S_TEXT/UTF8
  52. Codec ID/Info                            : UTF-8 Plain Text
  53. Duration                                 : 1 h 25 min
  54. Bit rate                                 : 64 b/s
  55. Count of elements                        : 1340
  56. Stream size                              : 40.4 KiB (0%)
  57. Title                                    : English-SRT
  58. Language                                 : English
  59. Default                                  : Yes
  60. Forced                                   : No

  61. Text #2
  62. ID                                       : 4
  63. Format                                   : PGS
  64. Muxing mode                              : zlib
  65. Codec ID                                 : S_HDMV/PGS
  66. Codec ID/Info                            : Picture based subtitle format used on BDs/HD-DVDs
  67. Duration                                 : 1 h 25 min
  68. Bit rate                                 : 45.4 kb/s
  69. Count of elements                        : 2938
  70. Stream size                              : 27.6 MiB (0%)
  71. Title                                    : English-PGS
  72. Language                                 : English
  73. Default                                  : No
  74. Forced                                   : No

  75. Text #3
  76. ID                                       : 5
  77. Format                                   : PGS
  78. Muxing mode                              : zlib
  79. Codec ID                                 : S_HDMV/PGS
  80. Codec ID/Info                            : Picture based subtitle format used on BDs/HD-DVDs
  81. Duration                                 : 1 h 25 min
  82. Bit rate                                 : 35.7 kb/s
  83. Count of elements                        : 2264
  84. Stream size                              : 21.7 MiB (0%)
  85. Title                                    : French-PGS
  86. Language                                 : French
  87. Default                                  : No
  88. Forced                                   : No

  89. Text #4
  90. ID                                       : 6
  91. Format                                   : PGS
  92. Muxing mode                              : zlib
  93. Codec ID                                 : S_HDMV/PGS
  94. Codec ID/Info                            : Picture based subtitle format used on BDs/HD-DVDs
  95. Duration                                 : 1 h 29 min
  96. Bit rate                                 : 36.0 kb/s
  97. Count of elements                        : 2360
  98. Stream size                              : 23.0 MiB (0%)
  99. Title                                    : Spanish-PGS
  100. Language                                 : Spanish
  101. Default                                  : No
  102. Forced                                   : No

  103. Text #5
  104. ID                                       : 7
  105. Format                                   : PGS
  106. Muxing mode                              : zlib
  107. Codec ID                                 : S_HDMV/PGS
  108. Codec ID/Info                            : Picture based subtitle format used on BDs/HD-DVDs
  109. Duration                                 : 1 h 29 min
  110. Bit rate                                 : 29.0 kb/s
  111. Count of elements                        : 2332
  112. Stream size                              : 18.7 MiB (0%)
  113. Title                                    : Japanese-PGS
  114. Language                                 : Japanese
  115. Default                                  : No
  116. Forced                                   : No

  117. Text #6
  118. ID                                       : 8
  119. Format                                   : PGS
  120. Muxing mode                              : zlib
  121. Codec ID                                 : S_HDMV/PGS
  122. Codec ID/Info                            : Picture based subtitle format used on BDs/HD-DVDs
  123. Duration                                 : 1 h 16 min
  124. Bit rate                                 : 67 b/s
  125. Count of elements                        : 6
  126. Stream size                              : 37.9 KiB (0%)
  127. Title                                    : French-FORCED-PGS
  128. Language                                 : French
  129. Default                                  : No
  130. Forced                                   : No

  131. Text #7
  132. ID                                       : 9
  133. Format                                   : PGS
  134. Muxing mode                              : zlib
  135. Codec ID                                 : S_HDMV/PGS
  136. Codec ID/Info                            : Picture based subtitle format used on BDs/HD-DVDs
  137. Duration                                 : 1 h 16 min
  138. Bit rate                                 : 74 b/s
  139. Count of elements                        : 6
  140. Stream size                              : 41.3 KiB (0%)
  141. Title                                    : Spanish-FORCED-PGS
  142. Language                                 : Spanish
  143. Default                                  : No
  144. Forced                                   : No

  145. Text #8
  146. ID                                       : 10
  147. Format                                   : PGS
  148. Muxing mode                              : zlib
  149. Codec ID                                 : S_HDMV/PGS
  150. Codec ID/Info                            : Picture based subtitle format used on BDs/HD-DVDs
  151. Duration                                 : 30 min 9 s
  152. Bit rate                                 : 90 b/s
  153. Count of elements                        : 4
  154. Stream size                              : 20.0 KiB (0%)
  155. Title                                    : Japanese-FORCED-PGS
  156. Language                                 : Japanese
  157. Default                                  : No
  158. Forced                                   : No

  159. Menu
  160. 00:00:00.000                             : en:Chapter 01
  161. 00:03:06.728                             : en:Chapter 02
  162. 00:06:47.949                             : en:Chapter 03
  163. 00:12:37.923                             : en:Chapter 04
  164. 00:16:35.285                             : en:Chapter 05
  165. 00:19:39.720                             : en:Chapter 06
  166. 00:23:51.138                             : en:Chapter 07
  167. 00:27:39.991                             : en:Chapter 08
  168. 00:31:22.297                             : en:Chapter 09
  169. 00:34:56.010                             : en:Chapter 10
  170. 00:37:20.738                             : en:Chapter 11
  171. 00:41:14.054                             : en:Chapter 12
  172. 00:43:33.402                             : en:Chapter 13
  173. 00:47:17.709                             : en:Chapter 14
  174. 00:48:40.626                             : en:Chapter 15
  175. 00:55:20.567                             : en:Chapter 16
  176. 00:57:38.413                             : en:Chapter 17
  177. 01:03:05.573                             : en:Chapter 18
  178. 01:07:25.583                             : en:Chapter 19
  179. 01:10:08.078                             : en:Chapter 20
  180. 01:10:42.321                             : en:Chapter 21
  181. 01:15:32.194                             : en:Chapter 22
  182. 01:18:58.275                             : en:Chapter 23
  183. 01:21:41.771                             : en:Chapter 24
  184. 01:25:44.222                             : en:Chapter 25
复制代码

阿拉丁/阿拉丁历险记 Aladdin.1992.1080p.BluRay.x264.DTS-HD.MA.7.1-SWTYBLZ 10.18GB-2.png 阿拉丁/阿拉丁历险记 Aladdin.1992.1080p.BluRay.x264.DTS-HD.MA.7.1-SWTYBLZ 10.18GB-3.png 阿拉丁/阿拉丁历险记 Aladdin.1992.1080p.BluRay.x264.DTS-HD.MA.7.1-SWTYBLZ 10.18GB-4.png






VIP会员免费任意下载本站所有资源!---点击开通
回复

使用道具 举报

懒得打字嘛,点击右侧快捷回复 【右侧内容,后台自定义】
您需要登录后才可以回帖 登录 | 立即注册

本版积分规则

QQ|Archiver|手机版|小黑屋| 中国高清网 |网站地图

GMT+8, 2019-9-21 20:57 , Processed in 0.315300 second(s), 41 queries .

Powered by HDchina X3.4

Copyright 2017-2019©HDchina.All right reserved

返回顶部 联系我们