查看: 62|回复: 1

[喜剧片] 夏福特 Shaft.2019.1080p.BluRay.x264-GECKOS 7.66GB

[复制链接]

 成长值: 2560

级别:资源管理组

注册时间
2017-10-20
最后登录
2019-9-19
听众
1
收听
0
主题
82921
蓝光币
49296 枚
贡献
7249 点
发表于 2019-9-12 19:56:44 | 显示全部楼层 |阅读模式
夏福特 Shaft.2019.1080p.BluRay.x264-GECKOS 7.66GB-1.png

译  名 夏福特 / Shaft 2 / Son of Shaft / 夏福特之子 / 新杀戮战警(台) / 杀戮战警2 / 辣手刑警 2:委曲父子档(港) / 铁杆神探2
片  名 Shaft
年  代 2019
产  地 美国
类  别 笑剧 / 行动 / 犯罪
语  言 英语
上映日期 2019-06-14(美国)
IMDb评分  6.4/10 from 26729 users
IMDb链接  http://www.imdb.com/title/tt4463894
豆瓣评分 6.8/10 from 5224 users
豆瓣链接 https://movie.douban.com/subject/27116384/
片  长 111分钟
导  演 蒂姆·斯托瑞 Tim Story
编  剧 肯尼亚·巴里斯 Kenya Barris / 亚历克斯·巴诺 Alex Barnow / 欧内斯特·泰迪曼 Ernest Tidyman
主  演 塞缪尔·杰克逊 Samuel L. Jackson
       杰西·厄舍 Jessie Usher
       理查德·朗德特里 Richard Roundtree
       雷吉娜·赫尔 Regina Hall
       亚历山德拉·希普 Alexandra Shipp
       马特·劳里亚 Matt Lauria
       提图斯·维里沃 Titus Welliver
       马索·曼恩 Method Man
       伊萨赫·德·班克尔 Isaach De Bankolé
       阿万·乔贾 Avan Jogia
       劳伦·维勒斯 Lauren Vélez
       伊恩·卡塞尔伯里 Ian Casselberry
       西尔维娅·杰弗里斯 Sylvia Jefferies
       迈克·顿斯顿 Mike Dunston
       查尔斯·格林 Charles Green
       艾德丽安·C·摩尔 Adrienne C. Moore
       乔恩·亚瑟 Jon Arthur
       肖恩·贝克 Sean Baker
       蒂莫西·卡尔 Timothy Carr
       大卫·邓斯顿 David Dunston
       何塞·阿尔弗雷多·费尔南德斯 José Alfredo Fernandez
       安东尼·B·哈里斯 Anthony B. Harris
       德梅特里·兰德尔 Demetri Landell
       汉斯·马雷罗 Hans Marrero
       布赖希亚·马歇尔 Brayhia Marshall
       肖恩·麦克米伦 Shaun McMillan
       本杰明·韦弗 Benjamin Weaver


标  签 笑剧 | 行动 | 犯罪 | 美国 | 黑人 | 2019 | 黑色诙谐 | 华纳

简  介  

  杰西·厄舍加盟[杀戮战警]续作[夏福特之子](Son of Shaft,暂译),塞缪尔·杰克逊同时回归。本片由蒂姆·斯托瑞([佐州自救兄弟])执导,肯尼亚·巴里斯编剧。厄舍饰演杰克逊的儿子,他同时也是一位联邦观察局工作职员,更是收集专家。
  1. Video
  2. ID                                       : 1
  3. Format                                   : AVC
  4. Format/Info                              : Advanced Video Codec
  5. Format profile                           : <a href="/cdn-cgi/l/email-protection" class="__cf_email__" data-cfemail="e8a0818f80a8a4dcc6d9">[email protected]</a>
  6. Format settings                          : CABAC / 5 Ref Frames
  7. Format settings, CABAC                   : Yes
  8. Format settings, Reference frames        : 5 frames
  9. Codec ID                                 : V_MPEG4/ISO/AVC
  10. Duration                                 : 1 h 51 min
  11. Bit rate                                 : 9 182 kb/s
  12. Width                                    : 1 920 pixels
  13. Height                                   : 808 pixels
  14. Display aspect ratio                     : 2.40:1
  15. Frame rate mode                          : Constant
  16. Frame rate                               : 23.976 (24000/1001) FPS
  17. Color space                              : YUV
  18. Chroma subsampling                       : 4:2:0
  19. Bit depth                                : 8 bits
  20. Scan type                                : Progressive
  21. Bits/(Pixel*Frame)                       : 0.247
  22. Stream size                              : 7.15 GiB (93%)
  23. Writing library                          : x264 core 158 r2984 3759fcb
  24. Encoding settings                        : cabac=1 / ref=5 / deblock=1:-3:-3 / analyse=0x3:0x133 / me=umh / subme=8 / psy=1 / psy_rd=1.00:0.00 / mixed_ref=1 / me_range=16 / chroma_me=1 / trellis=1 / 8x8dct=1 / cqm=0 / deadzone=21,11 / fast_pskip=0 / chroma_qp_offset=-2 / threads=25 / lookahead_threads=4 / sliced_threads=0 / nr=0 / decimate=1 / interlaced=0 / bluray_compat=0 / constrained_intra=0 / bframes=3 / b_pyramid=2 / b_adapt=1 / b_bias=0 / direct=3 / weightb=1 / open_gop=0 / weightp=2 / keyint=250 / keyint_min=23 / scenecut=40 / intra_refresh=0 / rc_lookahead=50 / rc=2pass / mbtree=1 / bitrate=9182 / ratetol=1.0 / qcomp=0.60 / qpmin=0 / qpmax=69 / qpstep=4 / cplxblur=20.0 / qblur=0.5 / vbv_maxrate=62500 / vbv_bufsize=78125 / nal_hrd=none / filler=0 / ip_ratio=1.40 / aq=1:1.00
  25. Default                                  : Yes
  26. Forced                                   : No

  27. Audio
  28. ID                                       : 2
  29. Format                                   : AC-3
  30. Format/Info                              : Audio Coding 3
  31. Commercial name                          : Dolby Digital
  32. Codec ID                                 : A_AC3
  33. Duration                                 : 1 h 51 min
  34. Bit rate mode                            : Constant
  35. Bit rate                                 : 640 kb/s
  36. Channel(s)                               : 6 channels
  37. Channel layout                           : L R C LFE Ls Rs
  38. Sampling rate                            : 48.0 kHz
  39. Frame rate                               : 31.250 FPS (1536 SPF)
  40. Bit depth                                : 16 bits
  41. Compression mode                         : Lossy
  42. Stream size                              : 511 MiB (7%)
  43. Language                                 : English
  44. Service kind                             : Complete Main
  45. Default                                  : Yes
  46. Forced                                   : No

  47. Menu
  48. 00:00:00.000                             : en:00:00:00.000
  49. 00:08:02.774                             : en:00:08:02.774
  50. 00:17:38.557                             : en:00:17:38.557
  51. 00:27:55.924                             : en:00:27:55.924
  52. 00:35:34.466                             : en:00:35:34.466
  53. 00:41:22.438                             : en:00:41:22.438
  54. 00:49:58.996                             : en:00:49:58.996
  55. 00:59:05.208                             : en:00:59:05.208
  56. 01:08:15.883                             : en:01:08:15.883
  57. 01:17:30.563                             : en:01:17:30.563
  58. 01:23:12.196                             : en:01:23:12.196
  59. 01:33:29.270                             : en:01:33:29.270
  60. 01:43:14.021                             : en:01:43:14.021
  61. 01:46:54.742                             : en:01:46:54.742
复制代码

夏福特 Shaft.2019.1080p.BluRay.x264-GECKOS 7.66GB-2.png






VIP会员免费任意下载本站所有资源!---点击开通
回复

使用道具 举报

级别:荣升主角 Lv.5

注册时间
2018-2-26
最后登录
2019-9-19
听众
15
收听
0
主题
0
蓝光币
304 枚
贡献
0 点
发表于 7 天前 | 显示全部楼层

这个帖子不回对不起自己!我想我是一天也不能离开中国高清电影网
VIP会员免费任意下载本站所有资源!---点击开通
回复

使用道具 举报

懒得打字嘛,点击右侧快捷回复 【右侧内容,后台自定义】
您需要登录后才可以回帖 登录 | 立即注册

本版积分规则

QQ|Archiver|手机版|小黑屋| 中国高清网 |网站地图

GMT+8, 2019-9-20 04:55 , Processed in 0.397705 second(s), 39 queries .

Powered by HDchina X3.4

Copyright 2017-2019©HDchina.All right reserved

返回顶部 联系我们