查看: 148|回复: 2

[纪录片] 最大的小小农场/我家有个开心农场 The.Biggest.Little.Farm.2018.720p.BluRay.x264-PSYCHD 5.47GB

[复制链接]

 成长值: 3860

级别:资源管理组

注册时间
2017-10-20
最后登录
2020-1-24
听众
1
收听
0
主题
90882
蓝光币
84865 枚
贡献
15244 点
发表于 2019-9-12 19:55:07 | 显示全部楼层 |阅读模式
最大的小小农场/我家有个高兴农场 The.Biggest.Little.Farm.2018.720p.BluRay.x264-PSYCHD 5.47GB-1.png
$ E) H7 g& a% j/ U! E) Q: Q& I! r+ _2 ?* S& @6 ^! @8 g9 ^
译  名 最大的小小农场 / 我家有个高兴农场(台)
, Z+ v2 g* z1 c5 |. ?8 L; K片  名 The Biggest Little Farm
2 A0 m2 |% F* R: x* e- e年  代 2018
  x9 Q8 O. H- _+ j4 Y! w产  地 美国( w$ }  }$ E" u$ E9 o
类  别 记载片# V5 r1 D$ G2 G8 A
语  言 英语
" o: ^/ Q; n* ~) o4 u3 h& g8 ^上映日期 2018-09-01(特柳赖德电影节) / 2019-05-10(美国)! D: ?' k" Z" k
IMDb评分  8.0/10 from 1219 users7 P# }# C- D' z  j
IMDb链接  http://www.imdb.com/title/tt8969332
; Z% }0 O! E; y; w/ u, h豆瓣评分 9.1/10 from 389 users
1 L: w2 E! _  c2 V5 B8 @: ]  J豆瓣链接 https://movie.douban.com/subject/30330264/
7 S$ e' Q! A6 v. [片  长 91分钟4 o* X2 V6 Z4 q, k. p( W& a; }
导  演 John Chester2 K# }# R$ I. y9 u: }$ ]0 C0 M
主  演 John Chester
! s7 t* y  \+ z. ?  x+ N8 ^5 e& @( A$ Z       Molly Chester
' ~- ^( S! l+ _5 o" V0 L
* L3 ~* z- n8 R" ~- n2 {* K5 a$ T
. p6 L' e- v) d1 T标  签 记载片 | 农场 | 美国 | 2019 | 美國 | Documentary | 美国电影 | 列传/ N' x3 r) {! R0 Y( l

6 e; S2 Z; H. m8 R' I2 P% P简  介  
$ q/ [2 `! N1 N6 g2 U( G# L
: ^- t, @( }" Z- m  只为了对峙对爱狗的许诺,约翰与茉莉这对疯狂夫妻干脆来去乡下开农场!本片用时十年追踪,随着这两位疯狂的胡想家和他们的爱狗,远赴乡下打造出与自然和谐共存,物种多样的高兴农场。他们种植了上万棵果树,两百种作物,并畜养各类动物好朋友,包括一只使人难忘的猪妈妈艾玛,和她的公鸡男友油头。当农场的生态系统被重新叫醒时,他们心目中的完善天下,起头出现连续串使人难以预感的疯狂改变!% O( |0 w6 F( K+ [% ^
( Q0 d6 a& g% S/ ~9 L: n
获奖情况  
* M4 ?( z+ N. a7 e# ]: S0 E+ ^( j/ V1 N% Z5 \4 @
  第43届多伦多国际电影节(2018). s" P% {  P) r* A
  观众挑选奖 记载片单元(提名)
, A/ `% J7 T6 c- z6 f5 n' k7 U
  1. Video
    , O9 [$ [$ p: p
  2. ID                                       : 1$ z. w# p* \+ u$ a4 m/ H
  3. Format                                   : AVC+ n. |/ u; T: B$ k( e+ P: ?0 G
  4. Format/Info                              : Advanced Video Codec
    0 Z1 s$ B& y1 C0 `4 H  t
  5. Format profile                           : <a href="/cdn-cgi/l/email-protection" class="__cf_email__" data-cfemail="377f5e505f777b031906">[email protected]</a>' N# |) r. Y4 g2 k- k2 a9 N
  6. Format settings                          : CABAC / 5 Ref Frames
    & D% V+ d  F6 m; ?0 o# w3 V: c0 Y2 e
  7. Format settings, CABAC                   : Yes
    4 Q+ Y+ _1 t( W/ s& z
  8. Format settings, Reference frames        : 5 frames
    7 j1 Y; f8 G; s
  9. Codec ID                                 : V_MPEG4/ISO/AVC) [& q# W9 O3 h, e* d* ^6 C" L# L
  10. Duration                                 : 1 h 32 min
    ' q0 I. n+ n2 S3 [0 ^
  11. Bit rate                                 : 6 985 kb/s
    & l! R' n/ Z; H' p7 v
  12. Width                                    : 1 280 pixels
    " Y- p& G- N/ o6 t1 {. x% Y
  13. Height                                   : 536 pixels
    - O1 H, c2 i( [2 U  Z' P  Y
  14. Display aspect ratio                     : 2.40:1( H3 d3 ~( W5 c9 u, g4 ~
  15. Frame rate mode                          : Constant4 p5 Y/ F+ u6 ?! u
  16. Frame rate                               : 23.976 (24000/1001) FPS$ k+ f' l- l4 r& n" B
  17. Color space                              : YUV3 y3 X" I% k* W: }  e# A. ~, r( K
  18. Chroma subsampling                       : 4:2:0
    . l7 Z" U0 |5 e/ j) k- E
  19. Bit depth                                : 8 bits
      R5 h1 r. V+ @6 t
  20. Scan type                                : Progressive2 [4 ^' X; {; \
  21. Bits/(Pixel*Frame)                       : 0.425
    # m5 w4 C6 \) H% {- h) \: H
  22. Stream size                              : 4.38 GiB (80%)
    ( F/ ^3 X% ^" n1 }. i. j
  23. Writing library                          : x264 core 158 r2984 3759fcb
    # S7 |2 P! j5 g. p! K  s" k" G
  24. Encoding settings                        : cabac=1 / ref=5 / deblock=1:-3:-3 / analyse=0x3:0x113 / me=umh / subme=8 / psy=1 / psy_rd=1.00:0.00 / mixed_ref=1 / me_range=24 / chroma_me=1 / trellis=2 / 8x8dct=1 / cqm=0 / deadzone=21,11 / fast_pskip=1 / chroma_qp_offset=-2 / threads=17 / lookahead_threads=2 / sliced_threads=0 / nr=0 / decimate=1 / interlaced=0 / bluray_compat=0 / constrained_intra=0 / bframes=3 / b_pyramid=2 / b_adapt=2 / b_bias=0 / direct=3 / weightb=1 / open_gop=0 / weightp=2 / keyint=240 / keyint_min=24 / scenecut=40 / intra_refresh=0 / rc_lookahead=50 / rc=2pass / mbtree=1 / bitrate=6985 / ratetol=1.0 / qcomp=0.60 / qpmin=0 / qpmax=69 / qpstep=4 / cplxblur=20.0 / qblur=0.5 / ip_ratio=1.40 / aq=3:0.80
    0 x0 S$ A: g! ?  `( C
  25. Default                                  : Yes- A$ a# t9 \5 @5 Z3 t
  26. Forced                                   : No
      c! L' j" M! j' L
  27. Statistics Tags Issue                    : no_variable_data 1970-01-01 00:00:00 / no_variable_data 2010-02-22 21:41:291 ]( i" J8 }8 X2 w; S
  28. FromStats_BitRate                        : 6983667
    * \8 o' Q) N6 j7 Q8 h/ n
  29. FromStats_Duration                       : 01:32:02.934000000, w$ Z5 h; d/ i: y6 ]* z3 X$ `2 I8 }
  30. FromStats_FrameCount                     : 132418
      l6 F' B( a( j2 n& e9 j
  31. FromStats_StreamSize                     : 4821291870
    7 O2 B5 c- M9 |7 L

  32.   n# h4 q# U  O8 D; \$ T& b, D9 L
  33. Audio9 G5 g+ F3 Q2 l( w
  34. ID                                       : 2$ Y8 E/ o; r" ^( D9 j9 m3 `
  35. Format                                   : DTS
    * p3 u# A" c$ u$ f0 @& ^
  36. Format/Info                              : Digital Theater Systems$ y5 N$ @" {2 J' {
  37. Codec ID                                 : A_DTS
    . g, A9 G  J0 K6 ^
  38. Duration                                 : 1 h 32 min1 M8 P4 j* ~1 J2 c, {' J- x* Z
  39. Bit rate mode                            : Constant  ~8 k, A" G! k
  40. Bit rate                                 : 1 509 kb/s
    - U; }0 Z7 t  ^8 l1 t
  41. Channel(s)                               : 6 channels2 v! P( w3 H; ~4 h: k  r
  42. Channel layout                           : C L R Ls Rs LFE
    8 I3 @0 G  E7 `( A, S
  43. Sampling rate                            : 48.0 kHz" j: V- q2 p& Q# x- E: |
  44. Frame rate                               : 93.750 FPS (512 SPF)  S) i" ^( F8 ^  N- E
  45. Bit depth                                : 24 bits: U2 E; i( H& B) _8 z% R8 A
  46. Compression mode                         : Lossy4 c; K) s5 ~6 u3 S; E7 n; _
  47. Stream size                              : 994 MiB (18%); ^- M0 b7 |0 y* c  Y$ Q
  48. Language                                 : English
    7 |% ~% t1 f& T' \3 k
  49. Default                                  : Yes
    ) [5 ~  a8 `! o; \. G
  50. Forced                                   : No
    1 K0 H& O; q" x! ?1 J$ q( ?3 L; @9 d
  51. Statistics Tags Issue                    : no_variable_data 1970-01-01 00:00:00 / no_variable_data 2010-02-22 21:41:29
    ! G  b1 U9 ?5 r' d( h
  52. FromStats_BitRate                        : 1508999
    9 m# j' q* ^' ]; I0 i
  53. FromStats_Duration                       : 01:32:03.030000000( Z9 Z- j( n- j& ~) i0 F0 A
  54. FromStats_FrameCount                     : 517784
    $ p! t0 h- W2 {* ^6 ~
  55. FromStats_StreamSize                     : 1041781408* K& ]- C% H  i- h9 c' ^' a
  56. , Y4 ~& G" X, U' A7 A) x
  57. Text #1/ o5 N7 E: V8 A, r7 o+ ~2 @4 i* I+ w
  58. ID                                       : 38 c6 z/ |4 d! o3 r
  59. Format                                   : UTF-8
    6 o% O4 o. j' D: M( D' L
  60. Codec ID                                 : S_TEXT/UTF8
    & J: g- A% @. m/ R; a6 i6 U
  61. Codec ID/Info                            : UTF-8 Plain Text
    : q# ~+ [! l; Q- R' r- Q
  62. Language                                 : English
    & n  j$ Z+ S, L  H6 c5 r
  63. Default                                  : No& l  t& ?, L: H- d
  64. Forced                                   : No
    : h' H0 ?9 ~! K
  65. Statistics Tags Issue                    : no_variable_data 1970-01-01 00:00:00 / no_variable_data 2010-02-22 21:41:29
      _8 J, J1 T3 f: z
  66. FromStats_BitRate                        : 57
    2 u: X0 l0 u( o( b, u
  67. FromStats_Duration                       : 01:30:36.3900000002 C, t8 |. h" P( O' x
  68. FromStats_FrameCount                     : 1033- I1 X& ~! u7 E6 t- E$ n! ^
  69. FromStats_StreamSize                     : 38893: i& P/ D& R+ Y# E; p

  70. ! Q# ^4 a5 ~9 M/ ~
  71. Text #2
    % `$ v0 C: @5 f7 g
  72. ID                                       : 4
    5 b4 u2 g1 V, l
  73. Format                                   : UTF-88 m. X! J* L9 B! q0 r- g
  74. Codec ID                                 : S_TEXT/UTF8, {7 C; S: r; ^1 Q
  75. Codec ID/Info                            : UTF-8 Plain Text6 i. R5 G3 }4 ?* g
  76. Title                                    : SDH
    + `7 ?; S& Y9 \4 b6 m* V- h
  77. Language                                 : English4 e% G% U4 j( X$ t% K9 x- q
  78. Default                                  : No0 V' N- Z# s, x* K
  79. Forced                                   : No4 w& E, u2 s" m/ }
  80. Statistics Tags Issue                    : no_variable_data 1970-01-01 00:00:00 / no_variable_data 2010-02-22 21:41:29
    * \  H" d% i1 D* W) m7 {
  81. FromStats_BitRate                        : 639 [$ x7 f% y8 S, x5 k' v$ M
  82. FromStats_Duration                       : 01:30:40.936000000. G4 a" E; a: c, B
  83. FromStats_FrameCount                     : 11440 K8 v, Y3 r0 j  O' ]: Q7 \- }
  84. FromStats_StreamSize                     : 43522
    $ E* f% I$ u0 D! r
  85. $ ?7 c9 d3 f# c. n% J
  86. Menu
    ( [  ]9 G8 g% e. P
  87. 00:00:00.000                             : en:Chapter 01! j+ O- Z4 V/ @9 I
  88. 00:10:00.600                             : en:Chapter 02
    , U: s6 Z/ x# p+ x& J# t% B! h
  89. 00:20:01.200                             : en:Chapter 03) W0 O( w# I, l8 O9 V
  90. 00:30:01.800                             : en:Chapter 04
    3 A0 q' a$ ?4 @" h2 v1 j, A( W+ V
  91. 00:40:02.400                             : en:Chapter 05
    # X$ J2 M6 k! O) |" n
  92. 00:50:03.000                             : en:Chapter 06
    1 q, D( [' i2 y$ ]1 z) ^
  93. 01:00:03.600                             : en:Chapter 07
    1 R5 }. [/ y2 T( @, b% _
  94. 01:10:04.200                             : en:Chapter 08
    % L+ R6 }: c! [1 ?% d& i
  95. 01:20:04.800                             : en:Chapter 09/ X$ q" N( T: y4 ?7 V7 Z+ D
  96. 01:30:05.400                             : en:Chapter 10
复制代码

# l5 Q  G, F$ M% a' @$ _+ _; C 最大的小小农场/我家有个高兴农场 The.Biggest.Little.Farm.2018.720p.BluRay.x264-PSYCHD 5.47GB-2.png ! v1 s: E0 N/ n& k7 S4 Q( T
7 j9 M* @8 t" j
8 ^) R' ^7 f/ l3 F+ E% v
% g4 V9 a! t: R* S1 T
1 G; \0 M) X( @# h4 z( K
2 N: u' F7 Z6 W' S

/ l( g" n% A* u" Y2 ~+ t. K& |* G
VIP会员免费任意下载本站所有资源!---点击开通
回复

使用道具 举报

级别:荣升主角 Lv.5

注册时间
2019-2-3
最后登录
2020-1-24
听众
15
收听
0
主题
0
蓝光币
255 枚
贡献
0 点
发表于 2019-9-12 21:27:24 | 显示全部楼层
楼主发贴辛苦了,谢谢楼主分享!我觉得中国高清电影网是注册对了!
VIP会员免费任意下载本站所有资源!---点击开通
回复

使用道具 举报

级别:一线明星 Lv.8

注册时间
2019-4-24
最后登录
2020-1-24
听众
14
收听
0
主题
0
蓝光币
270 枚
贡献
0 点
发表于 2019-9-17 09:01:56 | 显示全部楼层
楼主发贴辛苦了,谢谢楼主分享!我觉得中国高清电影网是注册对了!
VIP会员免费任意下载本站所有资源!---点击开通
回复

使用道具 举报

懒得打字嘛,点击右侧快捷回复 【右侧内容,后台自定义】
您需要登录后才可以回帖 登录 | 立即注册

本版积分规则

Archiver|手机版|小黑屋| 中国高清网 |网站地图

GMT+8, 2020-1-24 22:59 , Processed in 0.197090 second(s), 37 queries .

Powered by HDchina X3.4

Copyright 2017-2019©HDchina.All right reserved

返回顶部 联系我们