查看: 40|回复: 2

[纪录片] 最大的小小农场/我家有个开心农场 The.Biggest.Little.Farm.2018.720p.BluRay.x264-PSYCHD 5.47GB

[复制链接]

 成长值: 2570

级别:资源管理组

注册时间
2017-10-20
最后登录
2019-9-21
听众
1
收听
0
主题
83009
蓝光币
49643 枚
贡献
7337 点
发表于 2019-9-12 19:55:07 | 显示全部楼层 |阅读模式
最大的小小农场/我家有个高兴农场 The.Biggest.Little.Farm.2018.720p.BluRay.x264-PSYCHD 5.47GB-1.png ; H+ }/ w) z* i+ T

. R8 t, x& m: I& J. d4 s译  名 最大的小小农场 / 我家有个高兴农场(台), U8 X' Y* l9 E; `3 s8 z2 Z
片  名 The Biggest Little Farm
% u, o% @/ l5 x! Y年  代 2018
# \! E8 I# Q$ ?0 r产  地 美国# |! n) D7 [9 l
类  别 记载片, b$ b, N( B8 X& w- p0 Z, \1 K  v4 x
语  言 英语
. q* j7 i0 H  e0 T! n# M1 ]3 K上映日期 2018-09-01(特柳赖德电影节) / 2019-05-10(美国)* H2 ]( v0 `" W: a2 h5 x
IMDb评分  8.0/10 from 1219 users% T7 o+ t7 `) j8 x" a
IMDb链接  http://www.imdb.com/title/tt8969332
: k( V4 h, A' G豆瓣评分 9.1/10 from 389 users
" A: R; T8 A1 a! A- g豆瓣链接 https://movie.douban.com/subject/30330264/
# n$ Y/ J8 I7 g& l* R8 c( u$ A; Q片  长 91分钟& Q$ [9 z; ]; i6 e
导  演 John Chester! j) W  _) ]- `2 t; A
主  演 John Chester
) ?% w" C/ n/ r. X- ]5 M       Molly Chester
+ u: r2 _9 Y* ]8 d; i8 Y* F7 a- f! q! {: s! r8 j
* l, o- Z) e( z
标  签 记载片 | 农场 | 美国 | 2019 | 美國 | Documentary | 美国电影 | 列传- q  J/ _3 P2 e; I* z

. D3 m$ a$ A8 f( I% v- B: H% x  N简  介  9 J/ i! u9 }  Y" Z

" n. ?7 o. Z# b" p3 D+ ?! G/ q/ E  只为了对峙对爱狗的许诺,约翰与茉莉这对疯狂夫妻干脆来去乡下开农场!本片用时十年追踪,随着这两位疯狂的胡想家和他们的爱狗,远赴乡下打造出与自然和谐共存,物种多样的高兴农场。他们种植了上万棵果树,两百种作物,并畜养各类动物好朋友,包括一只使人难忘的猪妈妈艾玛,和她的公鸡男友油头。当农场的生态系统被重新叫醒时,他们心目中的完善天下,起头出现连续串使人难以预感的疯狂改变!( K+ G1 ?& B+ k+ p: X6 b3 s, P2 J
' `9 n. q+ ^  e0 |
获奖情况  4 Z/ S7 Q2 A9 M' L

/ C% T; N( J: ?$ K0 Q+ C  第43届多伦多国际电影节(2018)
. `2 i9 j( D  d2 w5 k! ^, k' }: l5 L  观众挑选奖 记载片单元(提名)
$ U/ P" E3 u3 n' ?& d
  1. Video
    4 w: }1 W) w7 K$ k9 \0 e
  2. ID                                       : 1! F& [, f7 h9 X) ^' Y- E1 w
  3. Format                                   : AVC# w  a4 r) j1 j. b
  4. Format/Info                              : Advanced Video Codec5 y5 T7 N/ f" i7 |! M& o/ ^" T
  5. Format profile                           : <a href="/cdn-cgi/l/email-protection" class="__cf_email__" data-cfemail="377f5e505f777b031906">[email protected]</a>
    $ ?. y8 K2 z1 `9 F5 `/ K
  6. Format settings                          : CABAC / 5 Ref Frames
    ; V" E- Q3 Z1 u# d& a
  7. Format settings, CABAC                   : Yes
    $ S+ }) l. R; m
  8. Format settings, Reference frames        : 5 frames- i$ v8 o' Q) `( |' p  a
  9. Codec ID                                 : V_MPEG4/ISO/AVC$ h- k  j; [- S& P0 l' B/ L1 u
  10. Duration                                 : 1 h 32 min
    8 g% F7 D  z5 r7 _- }. }
  11. Bit rate                                 : 6 985 kb/s
    3 t( N! b% P' P
  12. Width                                    : 1 280 pixels5 o/ v% ~' _/ V/ g) ~* |" F
  13. Height                                   : 536 pixels+ }6 s1 G5 ^  S1 a6 T& c0 L
  14. Display aspect ratio                     : 2.40:13 l. D1 u  h+ [. |' u
  15. Frame rate mode                          : Constant
    ( W9 S: f" m7 |' M4 C5 c4 L8 S
  16. Frame rate                               : 23.976 (24000/1001) FPS
    5 I: f  F9 U, {4 }: B" d
  17. Color space                              : YUV5 c) g, k: a' l0 U  B
  18. Chroma subsampling                       : 4:2:0, R; {+ _3 U, l$ V1 {- a$ r
  19. Bit depth                                : 8 bits
    0 ]' \# L, C( R4 t3 e; B
  20. Scan type                                : Progressive6 j6 _+ y+ W& ^) h
  21. Bits/(Pixel*Frame)                       : 0.425! `2 l4 N2 z) f% O' @* A+ Z
  22. Stream size                              : 4.38 GiB (80%)$ E# a" F$ z& z, v% C. g, f% H
  23. Writing library                          : x264 core 158 r2984 3759fcb
    + L5 O2 ^; A) k& R+ \
  24. Encoding settings                        : cabac=1 / ref=5 / deblock=1:-3:-3 / analyse=0x3:0x113 / me=umh / subme=8 / psy=1 / psy_rd=1.00:0.00 / mixed_ref=1 / me_range=24 / chroma_me=1 / trellis=2 / 8x8dct=1 / cqm=0 / deadzone=21,11 / fast_pskip=1 / chroma_qp_offset=-2 / threads=17 / lookahead_threads=2 / sliced_threads=0 / nr=0 / decimate=1 / interlaced=0 / bluray_compat=0 / constrained_intra=0 / bframes=3 / b_pyramid=2 / b_adapt=2 / b_bias=0 / direct=3 / weightb=1 / open_gop=0 / weightp=2 / keyint=240 / keyint_min=24 / scenecut=40 / intra_refresh=0 / rc_lookahead=50 / rc=2pass / mbtree=1 / bitrate=6985 / ratetol=1.0 / qcomp=0.60 / qpmin=0 / qpmax=69 / qpstep=4 / cplxblur=20.0 / qblur=0.5 / ip_ratio=1.40 / aq=3:0.804 r4 \- f6 r( e0 `% y: u: m
  25. Default                                  : Yes
    ; f' T/ T5 m( p/ E" i
  26. Forced                                   : No
    8 N9 E7 |3 H* r, ]( ]: m$ L
  27. Statistics Tags Issue                    : no_variable_data 1970-01-01 00:00:00 / no_variable_data 2010-02-22 21:41:292 \6 K0 ~2 P* B; C9 v# N5 z  X
  28. FromStats_BitRate                        : 6983667& @: h1 w% ?8 c( Y, R5 |0 @6 }
  29. FromStats_Duration                       : 01:32:02.934000000& ~5 A' r8 O& z( j
  30. FromStats_FrameCount                     : 132418* M7 l. B! a/ C/ ~/ V- X( f
  31. FromStats_StreamSize                     : 4821291870
    ' \0 z) e; I8 ^8 }0 c3 v
  32. ; ?5 A+ q, |5 d- X. U
  33. Audio
    + ?; B( B; ^7 p4 P3 U8 }5 |: p- n
  34. ID                                       : 2
    " c! B5 y5 d3 _' |8 j* P
  35. Format                                   : DTS
    / T8 Z/ p6 d: |7 A. G  Y
  36. Format/Info                              : Digital Theater Systems
    ! g+ ~/ m9 ]7 ]1 X3 R' Q
  37. Codec ID                                 : A_DTS
    ! ?8 h# a/ L9 W& v6 D
  38. Duration                                 : 1 h 32 min. ~; Y8 \- [8 Y+ n
  39. Bit rate mode                            : Constant/ y' H* x. j$ X$ E0 W
  40. Bit rate                                 : 1 509 kb/s- f/ D8 \8 H! J' S- i% o
  41. Channel(s)                               : 6 channels' ~* U" \2 j9 D  t
  42. Channel layout                           : C L R Ls Rs LFE
    - c4 L2 D: i( k( J8 ]& Q7 y- Q+ x
  43. Sampling rate                            : 48.0 kHz) h" c1 A: p7 }4 j% e; X+ L) R
  44. Frame rate                               : 93.750 FPS (512 SPF), X, c5 a4 @7 z: ^2 J
  45. Bit depth                                : 24 bits# t5 {* r5 S3 E4 _: H. Q& _
  46. Compression mode                         : Lossy
    3 [! p( I  V0 O$ f
  47. Stream size                              : 994 MiB (18%)
    2 |: W/ ~3 k& Z- z* J* R
  48. Language                                 : English
    ; W, w' {+ L, G
  49. Default                                  : Yes
    " ~2 h- A( L2 I2 B) [1 f
  50. Forced                                   : No3 Q/ t2 v3 |: C4 k) C( n0 N$ P
  51. Statistics Tags Issue                    : no_variable_data 1970-01-01 00:00:00 / no_variable_data 2010-02-22 21:41:29
    7 A: U/ |2 K- j
  52. FromStats_BitRate                        : 1508999
    7 L9 o+ `' A2 a9 a% b% B
  53. FromStats_Duration                       : 01:32:03.030000000) r' s! v) Y. p: g- T
  54. FromStats_FrameCount                     : 517784! b* x* u& `) u1 r: N& v
  55. FromStats_StreamSize                     : 1041781408
    , k8 V2 h7 h1 z" a$ v1 v
  56. 3 g3 K6 Q9 y# K6 O( Z
  57. Text #1
    / r- Q- E" K) R4 K9 e
  58. ID                                       : 3
    + D6 H! m! r+ Q1 ?  j
  59. Format                                   : UTF-8% A* @+ e6 B% [' P
  60. Codec ID                                 : S_TEXT/UTF8
    ! w' M) K5 S: _" @4 G. j0 `
  61. Codec ID/Info                            : UTF-8 Plain Text
    2 }0 z/ M5 V8 H+ Q
  62. Language                                 : English
    # a2 J: W( X* J' f' J
  63. Default                                  : No. Y+ G8 {2 X# @0 x5 Z( ^$ D- @
  64. Forced                                   : No5 e% s3 K: L9 u0 a# @; o
  65. Statistics Tags Issue                    : no_variable_data 1970-01-01 00:00:00 / no_variable_data 2010-02-22 21:41:299 Z: r" i0 k3 R0 `) T) _
  66. FromStats_BitRate                        : 57
    & [3 s' s; I9 x! ]: N" q
  67. FromStats_Duration                       : 01:30:36.390000000
    - u' Z1 y* x& U8 @7 B$ |4 E( z
  68. FromStats_FrameCount                     : 10337 C1 y* ~1 m" r0 @. V
  69. FromStats_StreamSize                     : 38893" q3 b) W; B# Z, k; N- @, _
  70. - z5 d2 W% ]* {1 C( P
  71. Text #2
    , O$ B& [8 ~; y* s3 g& K/ j
  72. ID                                       : 46 h0 K1 H, _0 e0 ~! G
  73. Format                                   : UTF-83 A+ g  y: {. n9 y8 V9 U& f; Q/ B
  74. Codec ID                                 : S_TEXT/UTF8
    * W- w0 O0 K, m/ x3 f4 |* v: q- n8 U
  75. Codec ID/Info                            : UTF-8 Plain Text# ~' H( O% R; J
  76. Title                                    : SDH) U9 ?* @: g% A1 p+ \* [6 ~% J
  77. Language                                 : English. l$ W  `' p5 ~4 m# Q
  78. Default                                  : No. V" l+ ~$ Y5 n9 i
  79. Forced                                   : No
    ' m* t, }: X9 w% ?; f
  80. Statistics Tags Issue                    : no_variable_data 1970-01-01 00:00:00 / no_variable_data 2010-02-22 21:41:29  Q" w5 o' N" A9 }
  81. FromStats_BitRate                        : 63
    % r6 s8 S8 D. f4 T  l7 i
  82. FromStats_Duration                       : 01:30:40.9360000005 u) j6 i- X8 X4 e9 F$ M. ]% W
  83. FromStats_FrameCount                     : 1144) i* v& m1 B5 B, t% k5 K
  84. FromStats_StreamSize                     : 43522
    ' O5 {8 T- f1 }$ `/ H" c
  85. % l' }& W4 a! n$ f
  86. Menu
    ) T, M8 {$ y! [: Z# Z
  87. 00:00:00.000                             : en:Chapter 01
    ! _5 w! u- b3 l" N* E
  88. 00:10:00.600                             : en:Chapter 020 m3 F1 U! z# \3 z5 X
  89. 00:20:01.200                             : en:Chapter 030 z( u1 ~2 f6 \& W
  90. 00:30:01.800                             : en:Chapter 04
    2 U- e: D; j1 C7 {
  91. 00:40:02.400                             : en:Chapter 05
    : u" g# c3 a8 l- G1 ?
  92. 00:50:03.000                             : en:Chapter 06
    % ^2 r. }% i' F, A0 T% W( l+ x3 e
  93. 01:00:03.600                             : en:Chapter 07" Q& a. H# P& ~4 ~% u+ L, ?
  94. 01:10:04.200                             : en:Chapter 08" n5 l2 ~/ Y/ ]" D' ~8 W# A
  95. 01:20:04.800                             : en:Chapter 09
    8 W5 ]( N, B& G, r; D
  96. 01:30:05.400                             : en:Chapter 10
复制代码

0 _; E4 ]3 p, C 最大的小小农场/我家有个高兴农场 The.Biggest.Little.Farm.2018.720p.BluRay.x264-PSYCHD 5.47GB-2.png 9 Z7 B! h  `. n  \- [/ d6 F
4 W# C5 Z: D/ P: ^1 j" U( T

1 q8 Y1 N1 |/ z# V
! y2 d$ \/ T( T+ w. s( q7 F, k1 n6 D! n8 P% j. p! c; Y

5 J2 N2 N! `) R6 T* u
6 \8 z& C8 A2 C' A/ Y8 N9 j
VIP会员免费任意下载本站所有资源!---点击开通
回复

使用道具 举报

级别:荣升主角 Lv.5

注册时间
2019-2-3
最后登录
2019-9-20
听众
14
收听
0
主题
0
蓝光币
173 枚
贡献
0 点
发表于 2019-9-12 21:27:24 | 显示全部楼层
楼主发贴辛苦了,谢谢楼主分享!我觉得中国高清电影网是注册对了!
VIP会员免费任意下载本站所有资源!---点击开通
回复

使用道具 举报

级别:领衔主演 Lv.6

注册时间
2019-4-24
最后登录
2019-9-20
听众
13
收听
0
主题
0
蓝光币
111 枚
贡献
0 点
发表于 4 天前 | 显示全部楼层
楼主发贴辛苦了,谢谢楼主分享!我觉得中国高清电影网是注册对了!
VIP会员免费任意下载本站所有资源!---点击开通
回复

使用道具 举报

懒得打字嘛,点击右侧快捷回复 【右侧内容,后台自定义】
您需要登录后才可以回帖 登录 | 立即注册

本版积分规则

QQ|Archiver|手机版|小黑屋| 中国高清网 |网站地图

GMT+8, 2019-9-21 15:35 , Processed in 0.579044 second(s), 41 queries .

Powered by HDchina X3.4

Copyright 2017-2019©HDchina.All right reserved

返回顶部 联系我们