查看: 23|回复: 0

[剧情片] 恐怖小丑 Gags.The.Clown.2018.1080p.WEB-DL.DD5.1.H264-FGT 3.41GB

[复制链接]

 成长值: 2570

级别:资源管理组

注册时间
2017-10-20
最后登录
2019-9-21
听众
1
收听
0
主题
83026
蓝光币
49761 枚
贡献
7354 点
发表于 2019-9-12 19:52:44 | 显示全部楼层 |阅读模式
195226kxwqugcqcwxwyixw.png

译  名 可骇小丑
片  名 Gags
年  代 2017
产  地 美国
类  别 剧情 / 惊悚 / 可骇
语  言 英语
上映日期 2019-09-03(美国)
IMDb评分  7.2/10 from 57 users
IMDb链接  http://www.imdb.com/title/tt6570372
豆瓣评分 0/10 from 0 users
豆瓣链接 https://movie.douban.com/subject/27042583/
片  长 89分钟
导  演 Adam Krause
编  剧 Adam Krause / John Pata
主  演 劳伦·阿什利·卡特 Lauren Ashley Carter
       Wyatt Kuether
       Michael Gideon Sherry


标  签 可骇 | 3M稀影基地论坛 | 3M稀影基地

简  介  

  It's been eight days since the clown first showed up in Green Bay, WI. Now, over the course of one night, four different groups of people cross paths with the clown everyone calls "Gags" and his true intentions are finally revealed.
  1. Video
  2. ID                                       : 1
  3. Format                                   : AVC
  4. Format/Info                              : Advanced Video Codec
  5. Format profile                           : <a href="/cdn-cgi/l/email-protection" class="__cf_email__" data-cfemail="6f270608072f235b">[email protected]</a>
  6. Format settings                          : CABAC / 4 Ref Frames
  7. Format settings, CABAC                   : Yes
  8. Format settings, Reference frames        : 4 frames
  9. Codec ID                                 : V_MPEG4/ISO/AVC
  10. Duration                                 : 1 h 29 min
  11. Bit rate                                 : 5 055 kb/s
  12. Width                                    : 1 920 pixels
  13. Height                                   : 1 080 pixels
  14. Display aspect ratio                     : 16:9
  15. Frame rate mode                          : Constant
  16. Frame rate                               : 23.976 (24000/1001) FPS
  17. Color space                              : YUV
  18. Chroma subsampling                       : 4:2:0
  19. Bit depth                                : 8 bits
  20. Scan type                                : Progressive
  21. Bits/(Pixel*Frame)                       : 0.102
  22. Stream size                              : 3.17 GiB (93%)
  23. Title                                    : Gags.The.Clown.2018.1080p.WEB-DL.DD5.1.H264-FGT
  24. Language                                 : English
  25. Default                                  : Yes
  26. Forced                                   : No
  27. Color range                              : Limited
  28. Color primaries                          : BT.709
  29. Transfer characteristics                 : BT.709
  30. Matrix coefficients                      : BT.709

  31. Audio
  32. ID                                       : 2
  33. Format                                   : AC-3
  34. Format/Info                              : Audio Coding 3
  35. Commercial name                          : Dolby Digital
  36. Codec ID                                 : A_AC3
  37. Duration                                 : 1 h 29 min
  38. Bit rate mode                            : Constant
  39. Bit rate                                 : 384 kb/s
  40. Channel(s)                               : 6 channels
  41. Channel layout                           : L R C LFE Ls Rs
  42. Sampling rate                            : 48.0 kHz
  43. Frame rate                               : 31.250 FPS (1536 SPF)
  44. Bit depth                                : 16 bits
  45. Compression mode                         : Lossy
  46. Stream size                              : 246 MiB (7%)
  47. Title                                    : Gags.The.Clown.2018.1080p.WEB-DL.DD5.1.H264-FGT
  48. Language                                 : English
  49. Service kind                             : Complete Main
  50. Default                                  : Yes
  51. Forced                                   : No

  52. Text
  53. ID                                       : 3
  54. Format                                   : UTF-8
  55. Codec ID                                 : S_TEXT/UTF8
  56. Codec ID/Info                            : UTF-8 Plain Text
  57. Duration                                 : 1 h 27 min
  58. Bit rate                                 : 123 b/s
  59. Count of elements                        : 1869
  60. Stream size                              : 78.9 KiB (0%)
  61. Language                                 : English
  62. Default                                  : Yes
  63. Forced                                   : No

  64. Menu
  65. 00:00:00.000                             : en:1
  66. 00:06:53.000                             : en:2
  67. 00:10:59.000                             : en:3
  68. 00:17:06.000                             : en:4
  69. 00:23:21.000                             : en:5
  70. 00:28:25.000                             : en:6
  71. 00:33:59.000                             : en:7
  72. 00:40:41.000                             : en:8
  73. 00:45:35.000                             : en:9
  74. 00:51:07.000                             : en:10
  75. 00:57:07.000                             : en:11
  76. 01:03:02.000                             : en:12
  77. 01:08:13.000                             : en:13
  78. 01:14:04.000                             : en:14
  79. 01:19:48.000                             : en:15
  80. 01:25:21.000                             : en:16
复制代码

可骇小丑 Gags.The.Clown.2018.1080p.WEB-DL.DD5.1.H264-FGT 3.41GB-2.png 可骇小丑 Gags.The.Clown.2018.1080p.WEB-DL.DD5.1.H264-FGT 3.41GB-3.png 可骇小丑 Gags.The.Clown.2018.1080p.WEB-DL.DD5.1.H264-FGT 3.41GB-4.png






VIP会员免费任意下载本站所有资源!---点击开通
回复

使用道具 举报

懒得打字嘛,点击右侧快捷回复 【右侧内容,后台自定义】
您需要登录后才可以回帖 登录 | 立即注册

本版积分规则

QQ|Archiver|手机版|小黑屋| 中国高清网 |网站地图

GMT+8, 2019-9-21 21:11 , Processed in 0.394503 second(s), 39 queries .

Powered by HDchina X3.4

Copyright 2017-2019©HDchina.All right reserved

返回顶部 联系我们