查看: 101|回复: 2

[惊悚片] 夜幕猎人 Night.Hunter.2018.720p.BluRay.x264-GUACAMOLE 4.38GB

[复制链接]

 成长值: 3810

级别:资源管理组

注册时间
2017-10-20
最后登录
2020-1-19
听众
1
收听
0
主题
90464
蓝光币
82834 枚
贡献
14826 点
发表于 2019-9-12 19:44:42 | 显示全部楼层 |阅读模式
夜幕猎人 Night.Hunter.2018.720p.BluRay.x264-GUACAMOLE 4.38GB-1.png
: o6 i3 d+ v* x9 ?* `% f2 O5 d9 o/ A: P5 k/ E
译  名 夜幕猎人 / Nomis / 诺米斯
$ \! ?  g( w! N- i2 C片  名 Night Hunter0 N; H7 L: W! O; T# e
年  代 20180 W* p* Y- J, O2 a' D- w
产  地 美国
/ i0 E! Z5 C8 a  b! x( m  e类  别 惊悚! `, y# Z0 ]" S( K/ s( I: R+ l0 }
语  言 英语8 E" W- |; M/ Z! ~  d) e0 N, n
上映日期 2018-09-28(洛杉矶电影节) / 2019-09-06(美国)
, U, c, F- c1 WIMDb评分  6.1/10 from 802 users
4 m4 P7 B" @+ t+ {' i- LIMDb链接  http://www.imdb.com/title/tt65332407 L0 [" L7 O, y/ k$ }  {- W6 i
豆瓣评分 0/10 from 0 users
. X! H6 d& C' i/ R豆瓣链接 https://movie.douban.com/subject/26972266/  G3 t9 X! z4 t( _/ B+ k0 |* K- u
片  长 98分钟( d7 j) I* c6 {; R4 ]$ L' ^- ?
导  演 大卫·雷蒙德 David Raymond
$ G, G" n7 t% y% h编  剧 大卫·雷蒙德 David Raymond
4 i) O! b; }3 K主  演 本·金斯利 Ben Kingsley* n2 I7 x: N6 R& @
       亨利·卡维尔 Henry Cavill( H3 _: H4 l* P7 d
       亚历珊德拉·达达里奥 Alexandra Daddario
6 Y4 v% M! R' s       斯坦利·图齐 Stanley Tucci
5 ?0 i* z5 ~7 p# G       内森·菲利安 Nathan Fillion$ [: A8 |& o9 l
       敏卡·凯利 Minka Kelly
7 s" J! C9 }5 ?; k: Q& Y4 A. p       布莱登·佛雷切 Brendan Fletcher
9 v" g: X  d" U  V. Z' }       伊莲娜·琼斯 Eliana Jones3 A5 R* @- c; s0 U7 @! ~
       Mpho Koaho, @3 ^" y' d) x! Y' o
       Kristen Harris) {' X; p9 u9 C; ~, J
       Lorraine James4 I# ?- a' l/ Y, Z
( m2 _+ F; E* J( x7 l
/ Z. j, k) U1 t; l
标  签 亨利·卡维尔 | 犯罪 | 惊悚 | 美国 | HenryCavill | 2018 | 电影 | 亚历珊德拉·达达里奥& p2 O$ m6 [0 ^; U# Z
$ ]  M' ^' v: \6 w/ H# ?# e5 N
简  介  . f$ x. L; ~! `

: D7 v) I( {( t! d  本·金斯利、亨利·卡维尔、亚历珊德拉·达达里奥加盟心理惊悚片[诺米斯](Nomis,暂译)。该片由大卫·雷蒙德自编自导,故事围绕一位美国差人追捕一位网上罪犯展开,随着案件的逐步深入,一切都朝着没法控制的偏向成长。2月底加拿大开机。
1 M$ @6 d& f' F8 T0 K* J
  1. Video
    . ]9 k' v# x* m  a( i
  2. ID                                       : 1
    1 a$ p/ z5 ~. S9 r
  3. Format                                   : AVC) R4 z% X3 R- C4 I5 f; g
  4. Format/Info                              : Advanced Video Codec# J9 T6 R/ D  w. c: D
  5. Format profile                           : <a href="/cdn-cgi/l/email-protection" class="__cf_email__" data-cfemail="ce86a7a9a68e82fae0ff">[email protected]</a>6 L- {# {; t3 q
  6. Format settings                          : CABAC / 5 Ref Frames: g4 ?. P0 j9 _4 R
  7. Format settings, CABAC                   : Yes
    7 z: Q2 `3 F3 S
  8. Format settings, Reference frames        : 5 frames( ^! @* h% j! ?
  9. Codec ID                                 : V_MPEG4/ISO/AVC
    4 M8 l7 [( ?9 n" e& ?
  10. Duration                                 : 1 h 38 min8 O9 J  {0 C, X6 M6 a; q+ `
  11. Bit rate                                 : 5 683 kb/s
    6 F9 D- ~  x5 `9 j4 G
  12. Width                                    : 1 280 pixels
    / o# D- u% A" Q
  13. Height                                   : 536 pixels
    ' B9 ^6 o6 O  n7 g% z8 l: ]
  14. Display aspect ratio                     : 2.40:11 |8 l: l4 `. h2 T- E
  15. Frame rate mode                          : Constant
    ' k3 W0 h2 U1 g3 Z
  16. Frame rate                               : 23.976 (24000/1001) FPS+ F1 {9 U& f  O" o  J
  17. Color space                              : YUV
    ) k( O$ \8 l6 k8 ^
  18. Chroma subsampling                       : 4:2:0& B& y8 e8 U+ _  b
  19. Bit depth                                : 8 bits
    ; d9 d# z" B! E, J8 T
  20. Scan type                                : Progressive8 x( [4 `* q7 r* |. w% V/ F
  21. Bits/(Pixel*Frame)                       : 0.3458 ^4 V4 b) J9 W5 a% B1 Y$ Y
  22. Stream size                              : 3.93 GiB (90%)1 ~$ G- b# U5 T3 K( q2 z' m5 p' T
  23. Writing library                          : x264 core 157 r2969 d4099dd" q3 h( z% v" I, B* o( R
  24. Encoding settings                        : cabac=1 / ref=5 / deblock=1:0:0 / analyse=0x3:0x113 / me=umh / subme=8 / psy=1 / psy_rd=1.00:0.00 / mixed_ref=1 / me_range=16 / chroma_me=1 / trellis=2 / 8x8dct=1 / cqm=0 / deadzone=21,11 / fast_pskip=0 / chroma_qp_offset=-2 / threads=12 / lookahead_threads=2 / sliced_threads=0 / nr=0 / decimate=1 / interlaced=0 / bluray_compat=0 / constrained_intra=0 / bframes=3 / b_pyramid=2 / b_adapt=1 / b_bias=0 / direct=1 / weightb=1 / open_gop=0 / weightp=2 / keyint=250 / keyint_min=23 / scenecut=40 / intra_refresh=0 / rc_lookahead=50 / rc=2pass / mbtree=1 / bitrate=5683 / ratetol=1.0 / qcomp=0.60 / qpmin=0 / qpmax=69 / qpstep=4 / cplxblur=20.0 / qblur=0.5 / ip_ratio=1.40 / aq=1:1.00
    2 O8 L8 m+ r5 l' W- d3 o  }4 h
  25. Default                                  : Yes
    4 M3 w; T# {; v0 L0 k: S
  26. Forced                                   : No
      k! ^0 }: c7 u1 `( G
  27.   m+ ]8 n% w9 f( i( P4 D
  28. Audio7 X; W9 X4 s! n2 z: T" @: f4 Z
  29. ID                                       : 28 _$ J9 m9 ?7 M4 C
  30. Format                                   : AC-3" O9 i; J. _! g$ F
  31. Format/Info                              : Audio Coding 35 F: A9 G  U6 \5 o; G  V
  32. Commercial name                          : Dolby Digital
    ! M: B+ c, _7 r, @" K9 c
  33. Codec ID                                 : A_AC3* p7 u- U  v$ I9 Z
  34. Duration                                 : 1 h 38 min
    9 D- P1 Z! S4 q0 J
  35. Bit rate mode                            : Constant
    * h% f- s& J9 r$ n
  36. Bit rate                                 : 640 kb/s# Y* h8 q  r! }3 Y# C  K9 E
  37. Channel(s)                               : 6 channels; Q* y1 n: [8 q+ Z% ]
  38. Channel layout                           : L R C LFE Ls Rs4 C: u% d! T0 s% K) S4 ]
  39. Sampling rate                            : 48.0 kHz
    ; J$ E( a+ ^6 Q+ o) |7 |8 w8 d4 K
  40. Frame rate                               : 31.250 FPS (1536 SPF): c/ W" ~7 _: w. i# F2 D) f9 B
  41. Bit depth                                : 16 bits
    6 u4 s5 u% h0 y) \) u$ Y4 b
  42. Compression mode                         : Lossy; j# T! f: V+ G) ^8 r' K
  43. Stream size                              : 453 MiB (10%)
    4 C9 y5 l, z/ w. O3 }+ f3 ?9 j
  44. Language                                 : English' B4 F# V* l4 H9 c% p6 w  ~
  45. Service kind                             : Complete Main
    4 s/ i( u( A# ^3 D, V/ u$ ?
  46. Default                                  : No' _( q* i- d0 I& `! X/ k
  47. Forced                                   : No
    ) I) _, c' v! x/ w2 m
  48. 0 d. P9 x. Y/ i5 x5 D& g
  49. Menu2 H8 X- r& N/ ~
  50. 00:00:00.000                             : en:00:00:00.000
    ; J) Q+ w+ {5 E
  51. 00:13:20.299                             : en:00:13:20.299+ @/ z' h( k/ m3 ^
  52. 00:25:10.884                             : en:00:25:10.884
    " V& o1 O4 l  ]$ O* h2 x
  53. 00:40:01.107                             : en:00:40:01.107. d, i9 G( E0 g3 C: a# v8 r
  54. 00:53:13.315                             : en:00:53:13.315& h3 q1 ^& X7 y! g8 O
  55. 01:08:14.507                             : en:01:08:14.507" h2 I* W# p* [* f+ ]; ]7 C
  56. 01:23:00.142                             : en:01:23:00.1424 n/ m; u! F' T! ~+ y# Q
  57. 01:33:35.652                             : en:01:33:35.652
复制代码
1 z, W- l, s* J
夜幕猎人 Night.Hunter.2018.720p.BluRay.x264-GUACAMOLE 4.38GB-2.png
% T& y) D$ r9 r# Y* p2 E
7 U& u) w+ D' d/ w& w' F4 O: X4 a, t/ B" J5 _- }; l

* o- v( k" S: i2 k& P3 o) v8 F4 R5 u

# I0 H# Q7 M  b& j; Z* z' N  p6 v1 |# c/ E+ S1 Q
VIP会员免费任意下载本站所有资源!---点击开通
回复

使用道具 举报

级别:荣升主角 Lv.5

注册时间
2019-2-3
最后登录
2020-1-18
听众
15
收听
0
主题
0
蓝光币
251 枚
贡献
0 点
发表于 2019-9-12 21:28:37 | 显示全部楼层
楼主发贴辛苦了,谢谢楼主分享!我觉得中国高清电影网是注册对了!
VIP会员免费任意下载本站所有资源!---点击开通
回复

使用道具 举报

级别:一线明星 Lv.8

注册时间
2019-4-24
最后登录
2020-1-18
听众
14
收听
0
主题
0
蓝光币
257 枚
贡献
0 点
发表于 2019-9-17 09:02:31 | 显示全部楼层
楼主发贴辛苦了,谢谢楼主分享!我觉得中国高清电影网是注册对了!
VIP会员免费任意下载本站所有资源!---点击开通
回复

使用道具 举报

懒得打字嘛,点击右侧快捷回复 【右侧内容,后台自定义】
您需要登录后才可以回帖 登录 | 立即注册

本版积分规则

Archiver|手机版|小黑屋| 中国高清网 |网站地图

GMT+8, 2020-1-19 02:23 , Processed in 0.191768 second(s), 37 queries .

Powered by HDchina X3.4

Copyright 2017-2019©HDchina.All right reserved

返回顶部 联系我们