查看: 32|回复: 2

[惊悚片] 夜幕猎人 Night.Hunter.2018.720p.BluRay.x264-GUACAMOLE 4.38GB

[复制链接]

 成长值: 2570

级别:资源管理组

注册时间
2017-10-20
最后登录
2019-9-21
听众
1
收听
0
主题
83026
蓝光币
49779 枚
贡献
7354 点
发表于 2019-9-12 19:44:42 | 显示全部楼层 |阅读模式
夜幕猎人 Night.Hunter.2018.720p.BluRay.x264-GUACAMOLE 4.38GB-1.png
! D# _; e, R# ]9 ]" }2 i1 j1 b5 Y; V+ A* s5 Q% u9 u
译  名 夜幕猎人 / Nomis / 诺米斯
1 D* h+ l2 x: G- X2 a片  名 Night Hunter+ A: V9 A+ h5 p- ?# X, \* @
年  代 20187 O% _. X$ X, s7 u
产  地 美国
" y1 d4 n$ t  H类  别 惊悚
6 o0 F/ A+ b, c$ n' _) o语  言 英语
: _- m/ V5 [  `+ u& V: ]8 f3 G上映日期 2018-09-28(洛杉矶电影节) / 2019-09-06(美国)& e: m0 ~- h, g3 U8 Q+ S' `9 H
IMDb评分  6.1/10 from 802 users, c2 m0 f# `/ w" Z5 S- u( B* \
IMDb链接  http://www.imdb.com/title/tt6533240
. J8 o. {0 ^, j- }4 J6 {豆瓣评分 0/10 from 0 users
% ~1 [* @4 Y- q豆瓣链接 https://movie.douban.com/subject/26972266/
  L- G) T. A8 A片  长 98分钟  y; o- D5 b1 V0 a4 }
导  演 大卫·雷蒙德 David Raymond: ~0 S$ U3 r6 Y% n/ E7 o! Y
编  剧 大卫·雷蒙德 David Raymond/ A( P+ ~) o7 k1 ]0 {
主  演 本·金斯利 Ben Kingsley
% q2 G4 W8 X0 b' o       亨利·卡维尔 Henry Cavill
" k. S) H: J- k3 F; w4 P2 m       亚历珊德拉·达达里奥 Alexandra Daddario
# \$ h& |0 G- L7 v8 u# B) I. P       斯坦利·图齐 Stanley Tucci; @0 ]& s; @7 u* i. p* W6 l
       内森·菲利安 Nathan Fillion
3 |$ J) c5 c2 F- {6 a4 f       敏卡·凯利 Minka Kelly! K4 t( [( M3 K# J
       布莱登·佛雷切 Brendan Fletcher4 W+ o% m! n4 h  _2 c7 ]4 d* \
       伊莲娜·琼斯 Eliana Jones! B$ A+ H- i3 G7 S  L
       Mpho Koaho
" x$ x! D5 k* a$ f5 E       Kristen Harris8 @7 B  c2 e' j2 e5 X' ~
       Lorraine James
8 A$ E7 O; ~7 N4 z0 u
6 o: n* L# y+ f9 S- X$ H  S7 h; N' q7 Z& k" h$ }1 V* [. O3 F
标  签 亨利·卡维尔 | 犯罪 | 惊悚 | 美国 | HenryCavill | 2018 | 电影 | 亚历珊德拉·达达里奥
1 j6 ?/ B5 Y8 E3 f+ V$ E- q: a+ Z7 p0 ^! _2 Y
简  介  
8 Y1 T9 c3 U6 z* ?4 m0 s' |& m! C+ N0 J
  本·金斯利、亨利·卡维尔、亚历珊德拉·达达里奥加盟心理惊悚片[诺米斯](Nomis,暂译)。该片由大卫·雷蒙德自编自导,故事围绕一位美国差人追捕一位网上罪犯展开,随着案件的逐步深入,一切都朝着没法控制的偏向成长。2月底加拿大开机。
6 R9 d; E# E1 ~3 C* e- u% g
  1. Video9 D. [$ \/ |$ C; V
  2. ID                                       : 18 \0 r3 l- O- \5 e5 C) A4 a
  3. Format                                   : AVC
    0 W* l/ @6 e" E8 G: _3 l, H: ~( W* W
  4. Format/Info                              : Advanced Video Codec
    % k# c2 b8 [3 s! B# u/ ~
  5. Format profile                           : <a href="/cdn-cgi/l/email-protection" class="__cf_email__" data-cfemail="ce86a7a9a68e82fae0ff">[email protected]</a>
    # L1 \, w  w/ C2 W2 I; B: `$ {
  6. Format settings                          : CABAC / 5 Ref Frames
    8 I6 U3 G! t9 ]: Y4 ?6 B% @
  7. Format settings, CABAC                   : Yes" G- k: }! Z8 V
  8. Format settings, Reference frames        : 5 frames
    4 g. B5 m; K" B1 v. N
  9. Codec ID                                 : V_MPEG4/ISO/AVC. Z% l9 z9 g) V  Z$ j4 f
  10. Duration                                 : 1 h 38 min
    % U( s2 n! I* S; R
  11. Bit rate                                 : 5 683 kb/s5 M& @# k( b, h' ]
  12. Width                                    : 1 280 pixels
    + P' D1 [3 u5 \9 E" m
  13. Height                                   : 536 pixels- u; T* C3 R) k: r3 S: Y7 N- z
  14. Display aspect ratio                     : 2.40:1) B! r) M, m% k, ~. u4 b
  15. Frame rate mode                          : Constant! ?' _8 A# @# K* l4 ?
  16. Frame rate                               : 23.976 (24000/1001) FPS+ Y9 E0 a9 W3 {- M7 S, |7 Z
  17. Color space                              : YUV7 F. B5 N0 W5 G) i# Y/ A" q- K4 H
  18. Chroma subsampling                       : 4:2:0
    9 v' Y" Q7 k% X; }* H
  19. Bit depth                                : 8 bits
    # C3 F" d' o* G) P
  20. Scan type                                : Progressive4 |8 B  c& q" ?% b3 n$ ~
  21. Bits/(Pixel*Frame)                       : 0.3455 Y" l, \6 q' J, Z) n
  22. Stream size                              : 3.93 GiB (90%)
    % N# P) f7 Q3 h. c/ v
  23. Writing library                          : x264 core 157 r2969 d4099dd2 r9 @* K" c. T7 M! \
  24. Encoding settings                        : cabac=1 / ref=5 / deblock=1:0:0 / analyse=0x3:0x113 / me=umh / subme=8 / psy=1 / psy_rd=1.00:0.00 / mixed_ref=1 / me_range=16 / chroma_me=1 / trellis=2 / 8x8dct=1 / cqm=0 / deadzone=21,11 / fast_pskip=0 / chroma_qp_offset=-2 / threads=12 / lookahead_threads=2 / sliced_threads=0 / nr=0 / decimate=1 / interlaced=0 / bluray_compat=0 / constrained_intra=0 / bframes=3 / b_pyramid=2 / b_adapt=1 / b_bias=0 / direct=1 / weightb=1 / open_gop=0 / weightp=2 / keyint=250 / keyint_min=23 / scenecut=40 / intra_refresh=0 / rc_lookahead=50 / rc=2pass / mbtree=1 / bitrate=5683 / ratetol=1.0 / qcomp=0.60 / qpmin=0 / qpmax=69 / qpstep=4 / cplxblur=20.0 / qblur=0.5 / ip_ratio=1.40 / aq=1:1.00
    # T: n5 e- {# q) k( d$ W9 V9 b
  25. Default                                  : Yes
    / l- ~( t- L$ O( m9 Y+ t
  26. Forced                                   : No
    : {! G8 L( J- N  L3 H2 R$ K

  27. : e9 B! `. _0 l. {2 F+ o
  28. Audio3 I1 z7 D- u; }9 h7 D: g
  29. ID                                       : 2
    1 b5 Z1 e# [& T, Y1 L! i  R8 d
  30. Format                                   : AC-3
    # v( G" q7 d6 u5 N; I
  31. Format/Info                              : Audio Coding 3
    % ]7 J- y' d* I3 |& P% D7 Q( Z
  32. Commercial name                          : Dolby Digital
    4 M! e% z# M. ?, p3 _
  33. Codec ID                                 : A_AC37 U* S0 {" ]! E
  34. Duration                                 : 1 h 38 min- \. y$ a+ T% Q6 a8 y
  35. Bit rate mode                            : Constant  Z% |6 d6 C  d8 |6 g6 f' C
  36. Bit rate                                 : 640 kb/s4 j0 K- `  w, e" r- {. X. ^0 r" d0 {
  37. Channel(s)                               : 6 channels
    ' q* Z5 D5 \5 E( y; |% ]$ _
  38. Channel layout                           : L R C LFE Ls Rs
    , e# B$ S+ p9 V6 g
  39. Sampling rate                            : 48.0 kHz* r; `" k+ b; w1 X; U, h
  40. Frame rate                               : 31.250 FPS (1536 SPF)
    # m% n% B5 X% [0 i
  41. Bit depth                                : 16 bits0 Q$ y$ G) b7 X7 y( M/ t  h
  42. Compression mode                         : Lossy# t" S% @8 u( E3 w. X/ B
  43. Stream size                              : 453 MiB (10%): Z8 s9 |' p( \
  44. Language                                 : English' q/ E) I) j# o4 Y: C( t, u
  45. Service kind                             : Complete Main
    : _/ m) O3 p+ I& ^: q2 u9 m3 I
  46. Default                                  : No! z/ v( \6 V* Q8 Z, Z4 W
  47. Forced                                   : No
    ! Q3 X+ H. Y% ~- W4 \( p

  48. ' m4 |- B4 M' a& D8 h/ u
  49. Menu; b4 ]- N3 {1 ~
  50. 00:00:00.000                             : en:00:00:00.000
    7 t. s+ Q2 l, D: \2 p
  51. 00:13:20.299                             : en:00:13:20.299; b- X& R- L: `3 p" |6 C
  52. 00:25:10.884                             : en:00:25:10.884+ `+ m4 R$ \9 Y* L4 [( g4 _9 Z" o! ?/ y; g
  53. 00:40:01.107                             : en:00:40:01.1076 A4 _! e7 |4 C9 ^5 W, F( D& \, q
  54. 00:53:13.315                             : en:00:53:13.315
    * T) E8 G+ ?! d
  55. 01:08:14.507                             : en:01:08:14.507
    - P; Y8 N1 p* F5 ^% L
  56. 01:23:00.142                             : en:01:23:00.142
    9 a( l( u1 q: J4 P* n# g
  57. 01:33:35.652                             : en:01:33:35.652
复制代码
, C& S: f+ {4 O# r9 F5 ?
夜幕猎人 Night.Hunter.2018.720p.BluRay.x264-GUACAMOLE 4.38GB-2.png 9 J& X: T5 A4 w6 j

% d: X% c5 m) {! W& V& E7 Z8 S
( v+ P" d. b+ w) ~( v5 d) L. P
# ]( g3 t* G! S# b- r
0 ~7 S% c1 H) D' i3 C# I3 I- n4 q" A: J: y  k3 C

7 r2 k& Q$ j5 a) x
VIP会员免费任意下载本站所有资源!---点击开通
回复

使用道具 举报

级别:荣升主角 Lv.5

注册时间
2019-2-3
最后登录
2019-9-21
听众
14
收听
0
主题
0
蓝光币
173 枚
贡献
0 点
发表于 2019-9-12 21:28:37 | 显示全部楼层
楼主发贴辛苦了,谢谢楼主分享!我觉得中国高清电影网是注册对了!
VIP会员免费任意下载本站所有资源!---点击开通
回复

使用道具 举报

级别:领衔主演 Lv.6

注册时间
2019-4-24
最后登录
2019-9-21
听众
13
收听
0
主题
0
蓝光币
111 枚
贡献
0 点
发表于 4 天前 | 显示全部楼层
楼主发贴辛苦了,谢谢楼主分享!我觉得中国高清电影网是注册对了!
VIP会员免费任意下载本站所有资源!---点击开通
回复

使用道具 举报

懒得打字嘛,点击右侧快捷回复 【右侧内容,后台自定义】
您需要登录后才可以回帖 登录 | 立即注册

本版积分规则

QQ|Archiver|手机版|小黑屋| 中国高清网 |网站地图

GMT+8, 2019-9-21 21:47 , Processed in 0.602802 second(s), 39 queries .

Powered by HDchina X3.4

Copyright 2017-2019©HDchina.All right reserved

返回顶部 联系我们