查看: 14|回复: 0

[惊悚片] 夜幕猎人 Night.Hunter.2018.1080p.BluRay.x264-GUACAMOLE 7.66GB

[复制链接]

 成长值: 2570

级别:资源管理组

注册时间
2017-10-20
最后登录
2019-9-21
听众
1
收听
0
主题
83009
蓝光币
49623 枚
贡献
7337 点
发表于 2019-9-12 19:43:48 | 显示全部楼层 |阅读模式
夜幕猎人 Night.Hunter.2018.1080p.BluRay.x264-GUACAMOLE 7.66GB-1.png

译  名 夜幕猎人 / Nomis / 诺米斯
片  名 Night Hunter
年  代 2018
产  地 美国
类  别 惊悚
语  言 英语
上映日期 2018-09-28(洛杉矶电影节) / 2019-09-06(美国)
IMDb评分  6.1/10 from 802 users
IMDb链接  http://www.imdb.com/title/tt6533240
豆瓣评分 0/10 from 0 users
豆瓣链接 https://movie.douban.com/subject/26972266/
片  长 98分钟
导  演 大卫·雷蒙德 David Raymond
编  剧 大卫·雷蒙德 David Raymond
主  演 本·金斯利 Ben Kingsley
       亨利·卡维尔 Henry Cavill
       亚历珊德拉·达达里奥 Alexandra Daddario
       斯坦利·图齐 Stanley Tucci
       内森·菲利安 Nathan Fillion
       敏卡·凯利 Minka Kelly
       布莱登·佛雷切 Brendan Fletcher
       伊莲娜·琼斯 Eliana Jones
       Mpho Koaho
       Kristen Harris
       Lorraine James


标  签 亨利·卡维尔 | 犯罪 | 惊悚 | 美国 | HenryCavill | 2018 | 电影 | 亚历珊德拉·达达里奥

简  介  

  本·金斯利、亨利·卡维尔、亚历珊德拉·达达里奥加盟心理惊悚片[诺米斯](Nomis,暂译)。该片由大卫·雷蒙德自编自导,故事围绕一位美国差人追捕一位网上罪犯展开,随着案件的逐步深入,一切都朝着没法控制的偏向成长。2月底加拿大开机。
  1. Video
  2. ID                                       : 1
  3. Format                                   : AVC
  4. Format/Info                              : Advanced Video Codec
  5. Format profile                           : <a href="/cdn-cgi/l/email-protection" class="__cf_email__" data-cfemail="d199b8b6b9919de5ffe0">[email protected]</a>
  6. Format settings                          : CABAC / 5 Ref Frames
  7. Format settings, CABAC                   : Yes
  8. Format settings, Reference frames        : 5 frames
  9. Codec ID                                 : V_MPEG4/ISO/AVC
  10. Duration                                 : 1 h 38 min
  11. Bit rate                                 : 10.4 Mb/s
  12. Width                                    : 1 920 pixels
  13. Height                                   : 808 pixels
  14. Display aspect ratio                     : 2.40:1
  15. Frame rate mode                          : Constant
  16. Frame rate                               : 23.976 (24000/1001) FPS
  17. Color space                              : YUV
  18. Chroma subsampling                       : 4:2:0
  19. Bit depth                                : 8 bits
  20. Scan type                                : Progressive
  21. Bits/(Pixel*Frame)                       : 0.280
  22. Stream size                              : 7.21 GiB (94%)
  23. Writing library                          : x264 core 157 r2969 d4099dd
  24. Encoding settings                        : cabac=1 / ref=5 / deblock=1:0:0 / analyse=0x3:0x113 / me=umh / subme=8 / psy=1 / psy_rd=1.00:0.00 / mixed_ref=1 / me_range=16 / chroma_me=1 / trellis=2 / 8x8dct=1 / cqm=0 / deadzone=21,11 / fast_pskip=0 / chroma_qp_offset=-2 / threads=12 / lookahead_threads=2 / sliced_threads=0 / nr=0 / decimate=1 / interlaced=0 / bluray_compat=0 / constrained_intra=0 / bframes=3 / b_pyramid=2 / b_adapt=1 / b_bias=0 / direct=1 / weightb=1 / open_gop=0 / weightp=2 / keyint=250 / keyint_min=23 / scenecut=40 / intra_refresh=0 / rc_lookahead=50 / rc=2pass / mbtree=1 / bitrate=10430 / ratetol=1.0 / qcomp=0.60 / qpmin=0 / qpmax=69 / qpstep=4 / cplxblur=20.0 / qblur=0.5 / ip_ratio=1.40 / aq=1:1.00
  25. Default                                  : Yes
  26. Forced                                   : No

  27. Audio
  28. ID                                       : 2
  29. Format                                   : AC-3
  30. Format/Info                              : Audio Coding 3
  31. Commercial name                          : Dolby Digital
  32. Codec ID                                 : A_AC3
  33. Duration                                 : 1 h 38 min
  34. Bit rate mode                            : Constant
  35. Bit rate                                 : 640 kb/s
  36. Channel(s)                               : 6 channels
  37. Channel layout                           : L R C LFE Ls Rs
  38. Sampling rate                            : 48.0 kHz
  39. Frame rate                               : 31.250 FPS (1536 SPF)
  40. Bit depth                                : 16 bits
  41. Compression mode                         : Lossy
  42. Stream size                              : 453 MiB (6%)
  43. Language                                 : English
  44. Service kind                             : Complete Main
  45. Default                                  : No
  46. Forced                                   : No

  47. Menu
  48. 00:00:00.000                             : en:00:00:00.000
  49. 00:13:20.299                             : en:00:13:20.299
  50. 00:25:10.884                             : en:00:25:10.884
  51. 00:40:01.107                             : en:00:40:01.107
  52. 00:53:13.315                             : en:00:53:13.315
  53. 01:08:14.507                             : en:01:08:14.507
  54. 01:23:00.142                             : en:01:23:00.142
  55. 01:33:35.652                             : en:01:33:35.652
复制代码

夜幕猎人 Night.Hunter.2018.1080p.BluRay.x264-GUACAMOLE 7.66GB-2.png






VIP会员免费任意下载本站所有资源!---点击开通
回复

使用道具 举报

懒得打字嘛,点击右侧快捷回复 【右侧内容,后台自定义】
您需要登录后才可以回帖 登录 | 立即注册

本版积分规则

QQ|Archiver|手机版|小黑屋| 中国高清网 |网站地图

GMT+8, 2019-9-21 14:53 , Processed in 0.410833 second(s), 39 queries .

Powered by HDchina X3.4

Copyright 2017-2019©HDchina.All right reserved

返回顶部 联系我们