查看: 102|回复: 2

[8bit.SDR] 阿拉丁/阿拉丁历险记 Aladdin.1992.2160p.BluRay.x264.8bit.SDR.DTS-HD.MA.TrueHD.7.1.Atmos-SWTYBLZ 20.56GB

[复制链接]

 成长值: 2570

级别:资源管理组

注册时间
2017-10-20
最后登录
2019-9-21
听众
1
收听
0
主题
83026
蓝光币
49759 枚
贡献
7354 点
发表于 2019-9-12 19:38:54 | 显示全部楼层 |阅读模式
阿拉丁/阿拉丁历险记 Aladdin.1992.2160p.BluRay.x264.8bit.SDR.DTS-HD.MA.TrueHD.7.1.Atmos-SWTYBLZ 20.56GB-1.png

译  名 阿拉丁 / 阿拉丁历险记
片  名 Aladdin
年  代 1992
产  地 美国
类  别 笑剧 / 动画 / 冒险
语  言 英语
上映日期 1992-11-25(美国)
IMDb评分  8.0/10 from 330431 users
IMDb链接  http://www.imdb.com/title/tt0103639
豆瓣评分 8.1/10 from 50831 users
豆瓣链接 https://movie.douban.com/subject/1299513/
片  长 90 分钟
导  演 罗恩·克莱蒙兹 Ron Clements / 约翰·马斯克 John Musker
编  剧 罗恩·克莱蒙兹 Ron Clements / 约翰·马斯克 John Musker / 泰德·艾略特 Ted Elliott / 特里·鲁西奥 Terry Rossio
主  演 斯科特·维内尔 Scott Weinger
       罗宾·威廉姆斯 Robin Williams
       琳达·拉金 Linda Larkin
       乔纳森·弗里曼 Jonathan Freeman
       弗兰克·维尔克 Frank Welker
       吉尔伯特·戈特弗雷德 Gilbert Gottfried
       查尔斯·阿德勒 Charles Adler
       杰克·安杰尔 Jack Angel
       科里·伯顿 Corey Burton
       吉姆·库宁斯 Jim Cummings
       詹妮弗·达林 Jennifer Darling
       黛比·戴瑞巴里 Debi Derryberry
       杰里·豪泽 Jerry Houser
       Vera Lockwood
       雪莉·琳恩 Sherry Lynn
       米凯·麦高万 Mickie McGowan
       菲尔·普洛克特 Phil Proctor
       布拉德·凯恩 Brad Kane
       丽娅·萨隆加 Lea Salonga
       哈尔·史姑娘 Hal Smith
       Douglas Seale
       Bruce Adler


标  签 动画 | 迪斯尼 | 美国 | 阿拉丁 | 动画片 | 1992 | 卡通 | 恋爱

简  介  

  阿拉伯少年阿拉丁不但具有忠厚的朋友山公阿布的友谊,还具有一条奇异的魔法飞毡,他们在闹市中过着无忧无虑的欢畅生活。一天,城堡里的公主厌倦了无聊透顶的皇宫生活,决议单独一人偷跑出来见识里面的十丈软红。偷跑出来的公主在闹市里碰到了阿拉丁,阿拉丁对她一见钟情。同一时辰,邪恶国师诡计操纵阿拉丁帮助自己找到能实现愿望的神灯,阿拉丁固然不愿束手待毙,因而,他的冒险之旅起头了。

获奖情况  

  第65届奥斯卡金像奖(1993)
  最好音效剪辑(提名) 马克·马基尼
  最好声响(提名) David J. Hudson / Doc Kane / Mel Metcalfe / 特里·波特
  最好原创配乐 艾伦·曼肯
  最好原创歌曲 艾伦·曼肯 / 蒂姆·赖斯
  最好原创歌曲(提名) 艾伦·曼肯 / 霍华德·阿什曼

  第47届英国电影学院奖(1994)
  电影奖 最好特别视觉结果(提名) Don Paul / Steve Goldberg
  电影奖 最好原创音乐(提名) 艾伦·曼肯

  第21届动画安妮奖(1993)
  最好动画长片
  1. Video
  2. ID                                       : 1
  3. Format                                   : AVC
  4. Format/Info                              : Advanced Video Codec
  5. Format profile                           : <a href="/cdn-cgi/l/email-protection" class="__cf_email__" data-cfemail="1e567779765e522b302f">[email protected]</a>
  6. Format settings                          : CABAC / 6 Ref Frames
  7. Format settings, CABAC                   : Yes
  8. Format settings, Reference frames        : 6 frames
  9. Codec ID                                 : V_MPEG4/ISO/AVC
  10. Duration                                 : 1 h 30 min
  11. Bit rate                                 : 23.5 Mb/s
  12. Width                                    : 3 584 pixels
  13. Height                                   : 2 160 pixels
  14. Display aspect ratio                     : 5:3
  15. Frame rate mode                          : Constant
  16. Frame rate                               : 23.976 (24000/1001) FPS
  17. Color space                              : YUV
  18. Chroma subsampling                       : 4:2:0
  19. Bit depth                                : 8 bits
  20. Scan type                                : Progressive
  21. Bits/(Pixel*Frame)                       : 0.126
  22. Stream size                              : 14.9 GiB (72%)
  23. Title                                    : Aladdin.1992.2160p.BluRay.x264.8bit.SDR.DTS-HD.MA.TrueHD.7.1.Atmos-SWTYBLZ
  24. Writing library                          : x264 core 157 r2935 545de2f
  25. Encoding settings                        : cabac=1 / ref=6 / deblock=1:1:1 / analyse=0x3:0x113 / me=umh / subme=10 / psy=1 / psy_rd=0.40:0.00 / mixed_ref=1 / me_range=48 / chroma_me=1 / trellis=2 / 8x8dct=1 / cqm=0 / deadzone=21,11 / fast_pskip=1 / chroma_qp_offset=-2 / threads=48 / lookahead_threads=5 / sliced_threads=0 / nr=0 / decimate=0 / interlaced=0 / bluray_compat=0 / constrained_intra=0 / bframes=5 / b_pyramid=2 / b_adapt=2 / b_bias=0 / direct=3 / weightb=1 / open_gop=0 / weightp=2 / keyint=250 / keyint_min=23 / scenecut=40 / intra_refresh=0 / rc_lookahead=50 / rc=crf / mbtree=1 / crf=16.0 / qcomp=0.60 / qpmin=0 / qpmax=69 / qpstep=4 / ip_ratio=1.40 / aq=1:0.60
  26. Default                                  : Yes
  27. Forced                                   : No

  28. Audio #1
  29. ID                                       : 2
  30. Format                                   : MLP FBA 16-ch
  31. Format/Info                              : Meridian Lossless Packing FBA with 16-channel presentation
  32. Commercial name                          : Dolby TrueHD with Dolby Atmos
  33. Codec ID                                 : A_TRUEHD
  34. Duration                                 : 1 h 30 min
  35. Bit rate mode                            : Variable
  36. Bit rate                                 : 4 768 kb/s
  37. Maximum bit rate                         : 6 816 kb/s
  38. Channel(s)                               : 8 channels
  39. Channel layout                           : L R C LFE Ls Rs Lb Rb
  40. Sampling rate                            : 48.0 kHz
  41. Frame rate                               : 1 200.000 FPS (40 SPF)
  42. Compression mode                         : Lossless
  43. Stream size                              : 3.02 GiB (15%)
  44. Title                                    : Aladdin.1992.2160p.BluRay.x264.8bit.SDR.DTS-HD.MA.TrueHD.7.1.Atmos-SWTYBLZ
  45. Language                                 : English
  46. Default                                  : Yes
  47. Forced                                   : No
  48. Number of dynamic objects                : 13
  49. Bed channel count                        : 1 channel
  50. Bed channel configuration                : LFE

  51. Audio #2
  52. ID                                       : 3
  53. Format                                   : DTS XLL
  54. Format/Info                              : Digital Theater Systems
  55. Commercial name                          : DTS-HD Master Audio
  56. Codec ID                                 : A_DTS
  57. Duration                                 : 1 h 30 min
  58. Bit rate mode                            : Variable
  59. Bit rate                                 : 3 387 kb/s
  60. Channel(s)                               : 8 channels
  61. Channel layout                           : C L R LFE Lb Rb Lss Rss
  62. Sampling rate                            : 48.0 kHz
  63. Frame rate                               : 93.750 FPS (512 SPF)
  64. Bit depth                                : 24 bits
  65. Compression mode                         : Lossless
  66. Stream size                              : 2.15 GiB (10%)
  67. Title                                    : Aladdin.1992.2160p.BluRay.x264.8bit.SDR.DTS-HD.MA.TrueHD.7.1.Atmos-SWTYBLZ
  68. Language                                 : English
  69. Default                                  : No
  70. Forced                                   : No

  71. Audio #3
  72. ID                                       : 4
  73. Format                                   : AC-3
  74. Format/Info                              : Audio Coding 3
  75. Commercial name                          : Dolby Digital
  76. Codec ID                                 : A_AC3
  77. Duration                                 : 1 h 30 min
  78. Bit rate mode                            : Constant
  79. Bit rate                                 : 640 kb/s
  80. Channel(s)                               : 6 channels
  81. Channel layout                           : L R C LFE Ls Rs
  82. Sampling rate                            : 48.0 kHz
  83. Frame rate                               : 31.250 FPS (1536 SPF)
  84. Bit depth                                : 16 bits
  85. Compression mode                         : Lossy
  86. Stream size                              : 415 MiB (2%)
  87. Title                                    : Aladdin.1992.2160p.BluRay.x264.8bit.SDR.DTS-HD.MA.TrueHD.7.1.Atmos-SWTYBLZ
  88. Language                                 : English
  89. Service kind                             : Complete Main
  90. Default                                  : No
  91. Forced                                   : No

  92. Text #1
  93. ID                                       : 5
  94. Format                                   : UTF-8
  95. Codec ID                                 : S_TEXT/UTF8
  96. Codec ID/Info                            : UTF-8 Plain Text
  97. Duration                                 : 1 h 25 min
  98. Bit rate                                 : 64 b/s
  99. Count of elements                        : 1340
  100. Stream size                              : 40.4 KiB (0%)
  101. Title                                    : English-SRT
  102. Language                                 : English
  103. Default                                  : Yes
  104. Forced                                   : No

  105. Text #2
  106. ID                                       : 6
  107. Format                                   : PGS
  108. Muxing mode                              : zlib
  109. Codec ID                                 : S_HDMV/PGS
  110. Codec ID/Info                            : Picture based subtitle format used on BDs/HD-DVDs
  111. Duration                                 : 1 h 25 min
  112. Bit rate                                 : 45.4 kb/s
  113. Count of elements                        : 2938
  114. Stream size                              : 27.6 MiB (0%)
  115. Title                                    : English-PGS
  116. Language                                 : English
  117. Default                                  : No
  118. Forced                                   : No

  119. Text #3
  120. ID                                       : 7
  121. Format                                   : PGS
  122. Muxing mode                              : zlib
  123. Codec ID                                 : S_HDMV/PGS
  124. Codec ID/Info                            : Picture based subtitle format used on BDs/HD-DVDs
  125. Duration                                 : 1 h 25 min
  126. Bit rate                                 : 35.7 kb/s
  127. Count of elements                        : 2264
  128. Stream size                              : 21.7 MiB (0%)
  129. Title                                    : French-PGS
  130. Language                                 : French
  131. Default                                  : No
  132. Forced                                   : No

  133. Text #4
  134. ID                                       : 8
  135. Format                                   : PGS
  136. Muxing mode                              : zlib
  137. Codec ID                                 : S_HDMV/PGS
  138. Codec ID/Info                            : Picture based subtitle format used on BDs/HD-DVDs
  139. Duration                                 : 1 h 29 min
  140. Bit rate                                 : 36.0 kb/s
  141. Count of elements                        : 2360
  142. Stream size                              : 23.0 MiB (0%)
  143. Title                                    : Spanish-PGS
  144. Language                                 : Spanish
  145. Default                                  : No
  146. Forced                                   : No

  147. Text #5
  148. ID                                       : 9
  149. Format                                   : PGS
  150. Muxing mode                              : zlib
  151. Codec ID                                 : S_HDMV/PGS
  152. Codec ID/Info                            : Picture based subtitle format used on BDs/HD-DVDs
  153. Duration                                 : 1 h 29 min
  154. Bit rate                                 : 29.0 kb/s
  155. Count of elements                        : 2332
  156. Stream size                              : 18.7 MiB (0%)
  157. Title                                    : Japanese-PGS
  158. Language                                 : Japanese
  159. Default                                  : No
  160. Forced                                   : No

  161. Text #6
  162. ID                                       : 10
  163. Format                                   : PGS
  164. Muxing mode                              : zlib
  165. Codec ID                                 : S_HDMV/PGS
  166. Codec ID/Info                            : Picture based subtitle format used on BDs/HD-DVDs
  167. Duration                                 : 1 h 16 min
  168. Bit rate                                 : 67 b/s
  169. Count of elements                        : 6
  170. Stream size                              : 37.9 KiB (0%)
  171. Title                                    : French-FORCED-PGS
  172. Language                                 : French
  173. Default                                  : No
  174. Forced                                   : No

  175. Text #7
  176. ID                                       : 11
  177. Format                                   : PGS
  178. Muxing mode                              : zlib
  179. Codec ID                                 : S_HDMV/PGS
  180. Codec ID/Info                            : Picture based subtitle format used on BDs/HD-DVDs
  181. Duration                                 : 1 h 16 min
  182. Bit rate                                 : 74 b/s
  183. Count of elements                        : 6
  184. Stream size                              : 41.3 KiB (0%)
  185. Title                                    : Spanish-FORCED-PGS
  186. Language                                 : Spanish
  187. Default                                  : No
  188. Forced                                   : No

  189. Text #8
  190. ID                                       : 12
  191. Format                                   : PGS
  192. Muxing mode                              : zlib
  193. Codec ID                                 : S_HDMV/PGS
  194. Codec ID/Info                            : Picture based subtitle format used on BDs/HD-DVDs
  195. Duration                                 : 30 min 9 s
  196. Bit rate                                 : 90 b/s
  197. Count of elements                        : 4
  198. Stream size                              : 20.0 KiB (0%)
  199. Title                                    : Japanese-FORCED-PGS
  200. Language                                 : Japanese
  201. Default                                  : No
  202. Forced                                   : No

  203. Menu
  204. 00:00:00.000                             : en:Chapter 01
  205. 00:03:06.728                             : en:Chapter 02
  206. 00:06:47.949                             : en:Chapter 03
  207. 00:12:37.923                             : en:Chapter 04
  208. 00:16:35.285                             : en:Chapter 05
  209. 00:19:39.720                             : en:Chapter 06
  210. 00:23:51.138                             : en:Chapter 07
  211. 00:27:39.991                             : en:Chapter 08
  212. 00:31:22.297                             : en:Chapter 09
  213. 00:34:56.010                             : en:Chapter 10
  214. 00:37:20.738                             : en:Chapter 11
  215. 00:41:14.054                             : en:Chapter 12
  216. 00:43:33.402                             : en:Chapter 13
  217. 00:47:17.709                             : en:Chapter 14
  218. 00:48:40.626                             : en:Chapter 15
  219. 00:55:20.567                             : en:Chapter 16
  220. 00:57:38.413                             : en:Chapter 17
  221. 01:03:05.573                             : en:Chapter 18
  222. 01:07:25.583                             : en:Chapter 19
  223. 01:10:08.078                             : en:Chapter 20
  224. 01:10:42.321                             : en:Chapter 21
  225. 01:15:32.194                             : en:Chapter 22
  226. 01:18:58.275                             : en:Chapter 23
  227. 01:21:41.771                             : en:Chapter 24
  228. 01:25:44.222                             : en:Chapter 25
复制代码

阿拉丁/阿拉丁历险记 Aladdin.1992.2160p.BluRay.x264.8bit.SDR.DTS-HD.MA.TrueHD.7.1.Atmos-SWTYBLZ 20.56GB-2.png 阿拉丁/阿拉丁历险记 Aladdin.1992.2160p.BluRay.x264.8bit.SDR.DTS-HD.MA.TrueHD.7.1.Atmos-SWTYBLZ 20.56GB-3.png 阿拉丁/阿拉丁历险记 Aladdin.1992.2160p.BluRay.x264.8bit.SDR.DTS-HD.MA.TrueHD.7.1.Atmos-SWTYBLZ 20.56GB-4.png 阿拉丁/阿拉丁历险记 Aladdin.1992.2160p.BluRay.x264.8bit.SDR.DTS-HD.MA.TrueHD.7.1.Atmos-SWTYBLZ 20.56GB-5.png 阿拉丁/阿拉丁历险记 Aladdin.1992.2160p.BluRay.x264.8bit.SDR.DTS-HD.MA.TrueHD.7.1.Atmos-SWTYBLZ 20.56GB-6.png 阿拉丁/阿拉丁历险记 Aladdin.1992.2160p.BluRay.x264.8bit.SDR.DTS-HD.MA.TrueHD.7.1.Atmos-SWTYBLZ 20.56GB-7.png 阿拉丁/阿拉丁历险记 Aladdin.1992.2160p.BluRay.x264.8bit.SDR.DTS-HD.MA.TrueHD.7.1.Atmos-SWTYBLZ 20.56GB-8.png







本帖隐藏的下载地址需要VIP会员才可阅读,您需要升级才可阅读,点击这里升级VIP

VIP会员免费任意下载本站所有资源!---点击开通
回复

使用道具 举报

级别:荣升主角 Lv.5

注册时间
2018-2-26
最后登录
2019-9-21
听众
15
收听
0
主题
0
蓝光币
302 枚
贡献
0 点
发表于 2019-9-13 09:06:22 | 显示全部楼层

这东西我收了!谢谢楼主!中国高清电影网真好!
VIP会员免费任意下载本站所有资源!---点击开通
回复

使用道具 举报

级别:初级观众 Lv.1

注册时间
2019-5-19
最后登录
2019-9-20
听众
6
收听
0
主题
0
蓝光币
0 枚
贡献
0 点
QQ
发表于 6 天前 | 显示全部楼层
有国语的吗
VIP会员免费任意下载本站所有资源!---点击开通
回复

使用道具 举报

懒得打字嘛,点击右侧快捷回复 【右侧内容,后台自定义】
您需要登录后才可以回帖 登录 | 立即注册

本版积分规则

QQ|Archiver|手机版|小黑屋| 中国高清网 |网站地图

GMT+8, 2019-9-21 20:57 , Processed in 0.355912 second(s), 42 queries .

Powered by HDchina X3.4

Copyright 2017-2019©HDchina.All right reserved

返回顶部 联系我们