查看: 37|回复: 1

[纪录片] 梦幻珊瑚海:唤醒 Coral.Sea.Dreaming.Awaken.2010.1080p.BluRay.x264-HANDJOB 6.82GB

[复制链接]

 成长值: 2570

级别:资源管理组

注册时间
2017-10-20
最后登录
2019-9-21
听众
1
收听
0
主题
83009
蓝光币
49621 枚
贡献
7337 点
发表于 2019-9-12 19:29:36 | 显示全部楼层 |阅读模式
梦幻珊瑚海:叫醒 Coral.Sea.Dreaming.Awaken.2010.1080p.BluRay.x264-HANDJOB 6.82GB-1.png

译  名 梦幻珊瑚海:叫醒
片  名 Coral Sea Dreaming: Awaken
年  代 2010
产  地 澳大利亚 Australia
类  别 记载片
语  言 英语
上映日期 2010-02
IMDb评分  8.4/10 from 37 users
IMDb链接  http://www.imdb.com/title/tt1648044
豆瓣评分 8.4/10 from 346 users
豆瓣链接 https://movie.douban.com/subject/6861857/
片  长 88分钟
导  演 David Hannan
编  剧 Toni Houston

标  签 记载片 | 陆地 | 自然 | 意大利 | 澳大利亚 | 2010 | 美国 | DOCUMENTARY

简  介  

  From the creators of "Dreams of the Coral Sea" in 1999. Stunning film, which opens the depths of life and death of the Great Barrier Reef, Australia Ningaluu Reef and the Coral Reef Papua New Guinea. The award-winning, the famous filmmaker David Hannan worked for 7 years to create this magical video evidence of the extraordinary underwater world. Music composer Tania Rose. You will see thousands of marine species coral reef in the movement.
  After many years dedicated to filming and editing in glorious High Definition, David Hannan's new underwater masterpiece is coming out now.
  Over 84 extraordinary minutes, Coral Sea Dreaming – Awaken enters into the very heart of life – and death – on a coral reef. It is a story that spans 500 million years and stars some of the most exotic and wondrous marine creatures on earth.  Coral is the planets greatest natural architect, and coral reefs boast the highest biodiversity of any ecosystem.
  Emmy Award-winning cinematographer David Hannan has filmed for 7 years to create this magnificent testimony to our extraordinary undersea world, set to an original score by Tania Rose.  We meet thousands of reef inhabitants, from ancient turtles to feeding sharks, adorable pygmy seahorses and savage sea slugs, witness a manta ray ballet and courting octopus.  Specialized state-of-the-art High Definition technology captures these lives with unprecedented intimacy, illustrating elaborate courtship displays, mating rituals, feeding frenzies, intense night-time predation, cannibalism and chemical warfare.
  David Hannan is renowned not only for his filmmaking, but also the conservation that is activated by his films. This is the driving force behind his work.
  Filled with startling HD scenes of exotic sea creatures, this is David Hannan's latest underwater masterpiece, a 'state of the art virtual experience' and window onto another world.
  Many of the sequences have never been filmed before.  Some may never be filmed again.  Corals have survived 5 mass extinctions. But can they survive us?
  Filmed over 2000 dives on three great coral reef ecosystems; The Great Barrier Reef,  Ningaloo Reef, and Papua New Guinea, Coral Sea Dreaming - Awaken is a celebration of reefs now under threat of climate change and ocean acidification. There is much to be done to safe-guard these precious ecosystems for future generations. And very little time to do it.
  1. Video
  2. ID                                       : 1
  3. Format                                   : AVC
  4. Format/Info                              : Advanced Video Codec
  5. Format profile                           : <a href="/cdn-cgi/l/email-protection" class="__cf_email__" data-cfemail="1b53727c735b572f352a">[email protected]</a>
  6. Format settings                          : CABAC / 4 Ref Frames
  7. Format settings, CABAC                   : Yes
  8. Format settings, Reference frames        : 4 frames
  9. Codec ID                                 : V_MPEG4/ISO/AVC
  10. Duration                                 : 1 h 28 min
  11. Bit rate                                 : 10.4 Mb/s
  12. Width                                    : 1 920 pixels
  13. Height                                   : 1 080 pixels
  14. Display aspect ratio                     : 16:9
  15. Frame rate mode                          : Constant
  16. Frame rate                               : 23.976 (24000/1001) FPS
  17. Color space                              : YUV
  18. Chroma subsampling                       : 4:2:0
  19. Bit depth                                : 8 bits
  20. Scan type                                : Progressive
  21. Bits/(Pixel*Frame)                       : 0.210
  22. Stream size                              : 6.42 GiB (94%)
  23. Writing library                          : x264 core 157 r2935 545de2f
  24. Encoding settings                        : cabac=1 / ref=4 / deblock=1:-3:-3 / analyse=0x3:0x133 / me=umh / subme=9 / psy=1 / psy_rd=1.00:0.00 / mixed_ref=1 / me_range=24 / chroma_me=1 / trellis=2 / 8x8dct=1 / cqm=0 / deadzone=21,11 / fast_pskip=0 / chroma_qp_offset=-2 / threads=18 / lookahead_threads=2 / sliced_threads=0 / nr=0 / decimate=1 / interlaced=0 / bluray_compat=0 / constrained_intra=0 / bframes=5 / b_pyramid=2 / b_adapt=2 / b_bias=0 / direct=3 / weightb=1 / open_gop=0 / weightp=2 / keyint=240 / keyint_min=24 / scenecut=40 / intra_refresh=0 / rc_lookahead=50 / rc=crf / mbtree=0 / crf=20.5 / qcomp=0.60 / qpmin=0 / qpmax=69 / qpstep=4 / vbv_maxrate=62500 / vbv_bufsize=78125 / crf_max=0.0 / nal_hrd=none / filler=0 / ip_ratio=1.40 / pb_ratio=1.30 / aq=2:1.00
  25. Default                                  : Yes
  26. Forced                                   : No
  27. Color range                              : Limited
  28. Color primaries                          : BT.709
  29. Transfer characteristics                 : BT.709
  30. Matrix coefficients                      : BT.709

  31. Audio
  32. ID                                       : 2
  33. Format                                   : AC-3
  34. Format/Info                              : Audio Coding 3
  35. Commercial name                          : Dolby Digital
  36. Codec ID                                 : A_AC3
  37. Duration                                 : 1 h 28 min
  38. Bit rate mode                            : Constant
  39. Bit rate                                 : 640 kb/s
  40. Channel(s)                               : 6 channels
  41. Channel layout                           : L R C LFE Ls Rs
  42. Sampling rate                            : 48.0 kHz
  43. Frame rate                               : 31.250 FPS (1536 SPF)
  44. Bit depth                                : 16 bits
  45. Compression mode                         : Lossy
  46. Stream size                              : 403 MiB (6%)
  47. Language                                 : English
  48. Service kind                             : Complete Main
  49. Default                                  : Yes
  50. Forced                                   : No

  51. Text
  52. ID                                       : 3
  53. Format                                   : UTF-8
  54. Codec ID                                 : S_TEXT/UTF8
  55. Codec ID/Info                            : UTF-8 Plain Text
  56. Duration                                 : 1 h 25 min
  57. Bit rate                                 : 62 b/s
  58. Count of elements                        : 890
  59. Stream size                              : 39.3 KiB (0%)
  60. Language                                 : English
  61. Default                                  : No
  62. Forced                                   : No

  63. Menu
  64. 00:00:00.000                             : :Chapter 1
  65. 00:00:18.018                             : :Chapter 2
  66. 00:03:56.153                             : :Chapter 3
  67. 00:06:55.415                             : :Chapter 4
  68. 00:07:59.604                             : :Chapter 5
  69. 00:17:26.128                             : :Chapter 6
  70. 00:20:56.422                             : :Chapter 7
  71. 00:22:31.892                             : :Chapter 8
  72. 00:27:21.640                             : :Chapter 9
  73. 00:28:26.914                             : :Chapter 10
  74. 00:30:45.719                             : :Chapter 11
  75. 00:37:21.322                             : :Chapter 12
  76. 00:51:33.007                             : :Chapter 13
  77. 00:59:08.420                             : :Chapter 14
  78. 01:04:27.697                             : :Chapter 15
  79. 01:10:54.083                             : :Chapter 16
  80. 01:13:38.998                             : :Chapter 17
  81. 01:16:27.208                             : :Chapter 18
  82. 01:23:10.736                             : :Chapter 19
  83. 01:26:28.934                             : :Chapter 20
复制代码

梦幻珊瑚海:叫醒 Coral.Sea.Dreaming.Awaken.2010.1080p.BluRay.x264-HANDJOB 6.82GB-2.png 梦幻珊瑚海:叫醒 Coral.Sea.Dreaming.Awaken.2010.1080p.BluRay.x264-HANDJOB 6.82GB-3.png 梦幻珊瑚海:叫醒 Coral.Sea.Dreaming.Awaken.2010.1080p.BluRay.x264-HANDJOB 6.82GB-4.png







VIP会员免费任意下载本站所有资源!---点击开通
回复

使用道具 举报

级别:荣升主角 Lv.5

注册时间
2018-2-26
最后登录
2019-9-21
听众
15
收听
0
主题
0
蓝光币
302 枚
贡献
0 点
发表于 2019-9-13 09:09:17 | 显示全部楼层

我看不错噢 谢谢楼主!中国高清电影网越来越好!
VIP会员免费任意下载本站所有资源!---点击开通
回复

使用道具 举报

懒得打字嘛,点击右侧快捷回复 【右侧内容,后台自定义】
您需要登录后才可以回帖 登录 | 立即注册

本版积分规则

QQ|Archiver|手机版|小黑屋| 中国高清网 |网站地图

GMT+8, 2019-9-21 14:41 , Processed in 0.425572 second(s), 39 queries .

Powered by HDchina X3.4

Copyright 2017-2019©HDchina.All right reserved

返回顶部 联系我们