查看: 62|回复: 3

[纪录片] 全新的地球 Planet.Re.Think.2012.1080p.BluRay.x264-HANDJOB 6.98GB

[复制链接]

 成长值: 2570

级别:资源管理组

注册时间
2017-10-20
最后登录
2019-9-21
听众
1
收听
0
主题
83026
蓝光币
49777 枚
贡献
7354 点
发表于 2019-9-12 19:28:12 | 显示全部楼层 |阅读模式
全新的地球 Planet.Re.Think.2012.1080p.BluRay.x264-HANDJOB 6.98GB-1.png

译  名 全新的地球
片  名 Planet RE:think
年  代 2012
产  地 Denmark / India
类  别 记载片
语  言 英语
IMDb评分  6.9/10 from 38 users
IMDb链接  http://www.imdb.com/title/tt2601044
豆瓣评分 0/10 from 0 users
豆瓣链接 https://movie.douban.com/subject/24748853/
导  演 Eskil Hardt

标  签 记载片 | 丹麦

简  介  

  Wir sehen heute zwei globalen Krisen ins Auge: Der Finanzkrise und der massiv kritischen Ausbeutung unserer Erde. Wachstum auf Pump und Verschwendung von Rohstoffen sind eng miteinander verknüpft und eine Krise allein auf lange Sicht nicht l?sbar. Die Zukunft hei?t: nachhaltiger Konsum. Planet RE:think zeigt die unaufh?rliche Ausbeutung unserer Ressourcen und die wahren Hintergründe dieser Probleme in ganz neuen Bildern und Geschichten. Die Dokumentation führt uns auf einer Reise von umweltbelastenden Minen in Kanada bis zu Gift aussto?enden Recyclingfabriken in Indien rund um den Globus. Am Ende steht aber nicht Resignation, sondern Hoffnung und ein Wegweiser aus dem Dilemma. Nachhaltige Businessmodelle und neue Entwicklungen von Mittelamerika über Europa bis Südafrika k?nnten uns positiv in die Zukunft schauen lassen: Wenn wir uns alle entschlie?en, zu handeln. Jetzt.
  1. Video
  2. ID                                       : 1
  3. Format                                   : AVC
  4. Format/Info                              : Advanced Video Codec
  5. Format profile                           : <a href="/cdn-cgi/l/email-protection" class="__cf_email__" data-cfemail="f8b0919f90b8b4ccd6c9">[email protected]</a>
  6. Format settings                          : CABAC / 4 Ref Frames
  7. Format settings, CABAC                   : Yes
  8. Format settings, Reference frames        : 4 frames
  9. Codec ID                                 : V_MPEG4/ISO/AVC
  10. Duration                                 : 1 h 25 min
  11. Bit rate                                 : 11.4 Mb/s
  12. Width                                    : 1 920 pixels
  13. Height                                   : 1 080 pixels
  14. Display aspect ratio                     : 16:9
  15. Frame rate mode                          : Constant
  16. Frame rate                               : 25.000 FPS
  17. Color space                              : YUV
  18. Chroma subsampling                       : 4:2:0
  19. Bit depth                                : 8 bits
  20. Scan type                                : Progressive
  21. Bits/(Pixel*Frame)                       : 0.219
  22. Stream size                              : 6.79 GiB (97%)
  23. Writing library                          : x264 core 157 r2935 545de2f
  24. Encoding settings                        : cabac=1 / ref=4 / deblock=1:-3:-3 / analyse=0x3:0x133 / me=umh / subme=9 / psy=1 / psy_rd=1.00:0.00 / mixed_ref=1 / me_range=24 / chroma_me=1 / trellis=2 / 8x8dct=1 / cqm=0 / deadzone=21,11 / fast_pskip=0 / chroma_qp_offset=-2 / threads=18 / lookahead_threads=2 / sliced_threads=0 / nr=0 / decimate=1 / interlaced=0 / bluray_compat=0 / constrained_intra=0 / bframes=5 / b_pyramid=2 / b_adapt=2 / b_bias=0 / direct=3 / weightb=1 / open_gop=0 / weightp=2 / keyint=250 / keyint_min=25 / scenecut=40 / intra_refresh=0 / rc_lookahead=50 / rc=crf / mbtree=0 / crf=19.5 / qcomp=0.60 / qpmin=0 / qpmax=69 / qpstep=4 / vbv_maxrate=62500 / vbv_bufsize=78125 / crf_max=0.0 / nal_hrd=none / filler=0 / ip_ratio=1.40 / pb_ratio=1.30 / aq=2:1.00
  25. Default                                  : Yes
  26. Forced                                   : No
  27. Color range                              : Limited
  28. Color primaries                          : BT.709
  29. Transfer characteristics                 : BT.709
  30. Matrix coefficients                      : BT.709

  31. Audio
  32. ID                                       : 2
  33. Format                                   : AAC LC
  34. Format/Info                              : Advanced Audio Codec Low Complexity
  35. Codec ID                                 : A_AAC-2
  36. Duration                                 : 1 h 25 min
  37. Bit rate                                 : 317 kb/s
  38. Channel(s)                               : 2 channels
  39. Channel layout                           : L R
  40. Sampling rate                            : 48.0 kHz
  41. Frame rate                               : 46.875 FPS (1024 SPF)
  42. Compression mode                         : Lossy
  43. Stream size                              : 194 MiB (3%)
  44. Language                                 : English
  45. Default                                  : Yes
  46. Forced                                   : No

  47. Menu
  48. 00:00:00.000                             : :Chapter 1
  49. 00:07:25.040                             : :Chapter 2
  50. 00:15:22.080                             : :Chapter 3
  51. 00:22:26.000                             : :Chapter 4
  52. 00:29:12.040                             : :Chapter 5
  53. 00:38:08.080                             : :Chapter 6
  54. 00:46:09.000                             : :Chapter 7
  55. 00:54:11.000                             : :Chapter 8
  56. 01:01:57.000                             : :Chapter 9
  57. 01:08:06.000                             : :Chapter 10
  58. 01:16:58.040                             : :Chapter 11
  59. 01:24:25.000                             : :Chapter 12
复制代码

全新的地球 Planet.Re.Think.2012.1080p.BluRay.x264-HANDJOB 6.98GB-2.png 全新的地球 Planet.Re.Think.2012.1080p.BluRay.x264-HANDJOB 6.98GB-3.png 全新的地球 Planet.Re.Think.2012.1080p.BluRay.x264-HANDJOB 6.98GB-4.png






VIP会员免费任意下载本站所有资源!---点击开通
回复

使用道具 举报

级别:荣升主角 Lv.5

注册时间
2018-2-26
最后登录
2019-9-21
听众
15
收听
0
主题
0
蓝光币
302 枚
贡献
0 点
发表于 2019-9-13 09:10:14 | 显示全部楼层

这东西我收了!谢谢楼主!中国高清电影网真好!
VIP会员免费任意下载本站所有资源!---点击开通
回复

使用道具 举报

级别:初级观众 Lv.1

注册时间
2019-9-7
最后登录
2019-9-20
听众
0
收听
0
主题
0
蓝光币
13 枚
贡献
0 点
发表于 7 天前 | 显示全部楼层

这个帖子不回对不起自己!我想我是一天也不能离开中国高清电影网
VIP会员免费任意下载本站所有资源!---点击开通
回复

使用道具 举报

级别:禁止发言

注册时间
2019-9-14
最后登录
2019-9-14
听众
0
收听
0
主题
0
蓝光币
0 枚
贡献
0 点
发表于 7 天前 | 显示全部楼层
提示: 作者被禁止或删除 内容自动屏蔽
VIP会员免费任意下载本站所有资源!---点击开通
回复

使用道具 举报

懒得打字嘛,点击右侧快捷回复 【右侧内容,后台自定义】
您需要登录后才可以回帖 登录 | 立即注册

本版积分规则

QQ|Archiver|手机版|小黑屋| 中国高清网 |网站地图

GMT+8, 2019-9-21 21:31 , Processed in 0.620987 second(s), 41 queries .

Powered by HDchina X3.4

Copyright 2017-2019©HDchina.All right reserved

返回顶部 联系我们