查看: 8|回复: 0

[剧情片] 玉碎塞班岛 Hell.to.Eternity.1960.1080p.WEBRip.x264-RARBG 2.51GB

[复制链接]

 成长值: 2570

级别:资源管理组

注册时间
2017-10-20
最后登录
2019-9-21
听众
1
收听
0
主题
83009
蓝光币
49621 枚
贡献
7337 点
发表于 2019-9-12 19:26:38 | 显示全部楼层 |阅读模式
玉碎塞班岛 Hell.to.Eternity.1960.1080p.WEBRip.x264-RARBG 2.51GB-1.png

译  名 玉碎塞班岛
片  名 Hell to Eternity
年  代 1960
产  地 美国
类  别 剧情 / 列传 / 战争
语  言 英语 / 日语
上映日期 1960-08-01
IMDb评分  7.0/10 from 936 users
IMDb链接  http://www.imdb.com/title/tt0053901
豆瓣评分 0/10 from 0 users
豆瓣链接 https://movie.douban.com/subject/1305523/
片  长 131 分钟
导  演 菲尔·卡尔森 Phil Karlson
编  剧 Gil Doud / 特德·希尔德曼 Ted Sherdeman / Walter Roeber Schmidt
主  演 杰弗里·亨特 Jeffrey Hunter
       大卫·简森 David Janssen
       维克·达莫内 Vic Damone
       帕特里夏·欧文斯 Patricia Owens


标  签 美国 | 二战 | 战争 | 历史 | 典范老片 | 1960 | 1960s | 日裔美国人

简  介  

  幼小的盖伊在母亲归天后被一个具有美国和日本两种血缘的家庭收养。在这类情况中长大的盖伊不但学会了日语,对日本的风尚也非常熟悉。珍珠港事务爆发了,盖伊的养怙恃因其日本血缘的怀疑而被送到了国际收留所,盖伊的两个哥哥以美国百姓的身份参了军,被派往欧洲作战。知晓日语的盖伊被美国水兵陆战队某部招为翻译,美军策动了攻打被日军占据的塞班岛的战争,盖伊也随军参战。战役中,盖伊的一个个好友纷纷中弹身亡,为避免流更多的血,盖伊请求前昔日军处劝降。身入险境的盖伊经太重重艰险,终究使岛上的日本军队放下兵器,接管了战争
  1. Video
  2. ID                                       : 1
  3. Format                                   : AVC
  4. Format/Info                              : Advanced Video Codec
  5. Format profile                           : <a href="/cdn-cgi/l/email-protection" class="__cf_email__" data-cfemail="87cfeee0efc7cbb3a9b6">[email protected]</a>
  6. Format settings                          : CABAC / 4 Ref Frames
  7. Format settings, CABAC                   : Yes
  8. Format settings, Reference frames        : 4 frames
  9. Codec ID                                 : avc1
  10. Codec ID/Info                            : Advanced Video Coding
  11. Duration                                 : 2 h 11 min
  12. Bit rate                                 : 2 500 kb/s
  13. Width                                    : 1 920 pixels
  14. Height                                   : 1 080 pixels
  15. Display aspect ratio                     : 16:9
  16. Frame rate mode                          : Constant
  17. Frame rate                               : 23.976 (23976/1000) FPS
  18. Color space                              : YUV
  19. Chroma subsampling                       : 4:2:0
  20. Bit depth                                : 8 bits
  21. Scan type                                : Progressive
  22. Bits/(Pixel*Frame)                       : 0.050
  23. Stream size                              : 2.30 GiB (92%)
  24. Writing library                          : x264 core 152 r2851M ba24899
  25. Encoding settings                        : cabac=1 / ref=4 / deblock=1:-1:-1 / analyse=0x3:0x113 / me=umh / subme=9 / psy=1 / psy_rd=1.00:0.15 / mixed_ref=1 / me_range=24 / chroma_me=1 / trellis=2 / 8x8dct=1 / cqm=0 / deadzone=21,11 / fast_pskip=1 / chroma_qp_offset=-3 / threads=16 / lookahead_threads=4 / sliced_threads=0 / nr=0 / decimate=1 / interlaced=0 / bluray_compat=0 / constrained_intra=0 / bframes=3 / b_pyramid=2 / b_adapt=2 / b_bias=0 / direct=3 / weightb=1 / open_gop=0 / weightp=2 / keyint=250 / keyint_min=25 / scenecut=40 / intra_refresh=0 / rc_lookahead=50 / rc=2pass / mbtree=1 / bitrate=2500 / ratetol=1.0 / qcomp=0.60 / qpmin=0 / qpmax=69 / qpstep=4 / cplxblur=20.0 / qblur=0.5 / vbv_maxrate=31250 / vbv_bufsize=31250 / nal_hrd=none / filler=0 / ip_ratio=1.40 / aq=3:1.00
  26. Encoded date                             : UTC 2019-09-11 23:11:08
  27. Tagged date                              : UTC 2019-09-11 23:11:08
  28. Codec configuration box                  : avcC

  29. Audio
  30. ID                                       : 2
  31. Format                                   : AAC LC
  32. Format/Info                              : Advanced Audio Codec Low Complexity
  33. Codec ID                                 : mp4a-40-2
  34. Duration                                 : 2 h 11 min
  35. Bit rate mode                            : Constant
  36. Bit rate                                 : 224 kb/s
  37. Channel(s)                               : 2 channels
  38. Channel layout                           : L R
  39. Sampling rate                            : 48.0 kHz
  40. Frame rate                               : 46.875 FPS (1024 SPF)
  41. Compression mode                         : Lossy
  42. Stream size                              : 211 MiB (8%)
  43. Language                                 : English
  44. Default                                  : Yes
  45. Alternate group                          : 1
  46. Encoded date                             : UTC 2019-09-11 23:11:08
  47. Tagged date                              : UTC 2019-09-11 23:11:08
复制代码

玉碎塞班岛 Hell.to.Eternity.1960.1080p.WEBRip.x264-RARBG 2.51GB-2.png 玉碎塞班岛 Hell.to.Eternity.1960.1080p.WEBRip.x264-RARBG 2.51GB-3.png 玉碎塞班岛 Hell.to.Eternity.1960.1080p.WEBRip.x264-RARBG 2.51GB-4.png







VIP会员免费任意下载本站所有资源!---点击开通
回复

使用道具 举报

懒得打字嘛,点击右侧快捷回复 【右侧内容,后台自定义】
您需要登录后才可以回帖 登录 | 立即注册

本版积分规则

QQ|Archiver|手机版|小黑屋| 中国高清网 |网站地图

GMT+8, 2019-9-21 14:42 , Processed in 0.428040 second(s), 39 queries .

Powered by HDchina X3.4

Copyright 2017-2019©HDchina.All right reserved

返回顶部 联系我们