查看: 44|回复: 1

[喜剧片] 昨日奇迹 Yesterday.2019.1080p.BluRay.x264-DRONES 7.66GB

[复制链接]

 成长值: 2570

级别:资源管理组

注册时间
2017-10-20
最后登录
2019-9-21
听众
1
收听
0
主题
83026
蓝光币
49773 枚
贡献
7354 点
发表于 2019-9-12 19:14:32 | 显示全部楼层 |阅读模式
昨日奇迹 Yesterday.2019.1080p.BluRay.x264-DRONES 7.66GB-1.png

译  名 昨日奇迹 / All You Need is Love / 你需要的只是爱 / 昨天 / 昨日 / 缘來自昨天(港) / 靠谱歌王(台)
片  名 Yesterday
年  代 2019
产  地 英国
类  别 笑剧 / 音乐 / 奇异
语  言 英语
上映日期 2019-05-05(翠贝卡电影节) / 2019-06-28(英国) / 2019-08-16(中国大陆)
IMDb评分  7.0/10 from 31211 users
IMDb链接  http://www.imdb.com/title/tt8079248
豆瓣评分 6.6/10 from 3863 users
豆瓣链接 https://movie.douban.com/subject/30165034/
片  长 116分钟
导  演 丹尼·博伊尔 Danny Boyle
编  剧 杰克·巴斯 Jack Barth / 理查德·柯蒂斯 Richard Curtis
主  演 希米什·帕特尔 Himesh Patel
       莉莉·詹姆斯 Lily James
       艾德·希兰 Ed Sheeran
       凯特·麦克金农 Kate McKinnon
       阿历克斯·阿诺 Alexander Arnold
       乔尔·弗莱 Joel Fry
       詹姆斯·柯登 James Corden
       卡米利·陈 Camille Chen
       拉蒙尼·莫里斯 Lamorne Morris
       索菲娅·迪·马蒂诺 Sophia Di Martino
       卡米拉·拉瑟福德 Camilla Rutherford
       艾利斯·查普尔 Ellise Chappell
       莎拉·兰卡夏尔 Sarah Lancashire
       多米尼克·科尔曼 Dominic Coleman
       玛丽安娜·斯皮瓦克 Maryana Spivak
       詹妮弗·阿尔莫 Jennifer Armour
       安娜·德·阿玛斯 Ana de Armas
       哈廷·帕特尔 Hiten Patel
       阿图尔·夏尔马 Atul Sharma
       马诺伊·阿南德 Manoj Anand
       哈里·米歇尔 Harry Michell
       珊妮·姚 Sunny Yeo
       乔希·特雷特 Josh Trett
       西蒙·P·爱德华兹 Simon P Edwards


标  签 披头士 | 音乐 | 英国 | 笑剧 | 2019 | 摇滚 | 奇异 | 平行穿越

简  介  

  杰克(希米什·帕特尔 饰)是英国一个海滨小镇上苦苦挣扎的创作型歌手,有着好友艾莉(莉莉·詹姆斯 饰)的一向支持。在一次奥秘的全球大停电中发生了一路希奇的公交车变乱,杰克醒来后发现披头士乐队底子从未存在过。他正面临着很是复杂的题目。
  1. Video
  2. ID                                       : 1
  3. Format                                   : AVC
  4. Format/Info                              : Advanced Video Codec
  5. Format profile                           : <a href="/cdn-cgi/l/email-protection" class="__cf_email__" data-cfemail="f5bd9c929db5b9c1dbc4">[email protected]</a>
  6. Format settings                          : CABAC / 5 Ref Frames
  7. Format settings, CABAC                   : Yes
  8. Format settings, Reference frames        : 5 frames
  9. Codec ID                                 : V_MPEG4/ISO/AVC
  10. Duration                                 : 1 h 56 min
  11. Bit rate                                 : 8 783 kb/s
  12. Width                                    : 1 920 pixels
  13. Height                                   : 808 pixels
  14. Display aspect ratio                     : 2.40:1
  15. Frame rate mode                          : Constant
  16. Frame rate                               : 23.976 FPS
  17. Color space                              : YUV
  18. Chroma subsampling                       : 4:2:0
  19. Bit depth                                : 8 bits
  20. Scan type                                : Progressive
  21. Bits/(Pixel*Frame)                       : 0.236
  22. Stream size                              : 7.13 GiB (93%)
  23. Writing library                          : x264 core 158 r2984 3759fcb
  24. Encoding settings                        : cabac=1 / ref=5 / deblock=1:-3:-3 / analyse=0x3:0x113 / me=umh / subme=8 / psy=1 / psy_rd=1.00:0.00 / mixed_ref=1 / me_range=16 / chroma_me=1 / trellis=1 / 8x8dct=1 / cqm=0 / deadzone=21,11 / fast_pskip=1 / chroma_qp_offset=-2 / threads=25 / lookahead_threads=4 / sliced_threads=0 / nr=0 / decimate=1 / interlaced=0 / bluray_compat=0 / constrained_intra=0 / bframes=3 / b_pyramid=2 / b_adapt=1 / b_bias=0 / direct=3 / weightb=1 / open_gop=0 / weightp=2 / keyint=250 / keyint_min=23 / scenecut=40 / intra_refresh=0 / rc_lookahead=50 / rc=2pass / mbtree=1 / bitrate=8783 / ratetol=1.0 / qcomp=0.60 / qpmin=0 / qpmax=69 / qpstep=4 / cplxblur=20.0 / qblur=0.5 / ip_ratio=1.40 / aq=1:1.00
  25. Language                                 : English
  26. Default                                  : Yes
  27. Forced                                   : No

  28. Audio
  29. ID                                       : 2
  30. Format                                   : AC-3
  31. Format/Info                              : Audio Coding 3
  32. Commercial name                          : Dolby Digital
  33. Codec ID                                 : A_AC3
  34. Duration                                 : 1 h 56 min
  35. Bit rate mode                            : Constant
  36. Bit rate                                 : 640 kb/s
  37. Channel(s)                               : 6 channels
  38. Channel layout                           : L R C LFE Ls Rs
  39. Sampling rate                            : 48.0 kHz
  40. Frame rate                               : 31.250 FPS (1536 SPF)
  41. Bit depth                                : 16 bits
  42. Compression mode                         : Lossy
  43. Stream size                              : 532 MiB (7%)
  44. Language                                 : English
  45. Service kind                             : Complete Main
  46. Default                                  : Yes
  47. Forced                                   : No

  48. Menu
  49. 00:00:00.000                             : en:00:00:00.000
  50. 00:06:16.668                             : en:00:06:16.668
  51. 00:11:19.679                             : en:00:11:19.679
  52. 00:16:13.097                             : en:00:16:13.097
  53. 00:21:28.287                             : en:00:21:28.287
  54. 00:27:04.540                             : en:00:27:04.540
  55. 00:33:31.885                             : en:00:33:31.885
  56. 00:38:55.083                             : en:00:38:55.083
  57. 00:45:53.250                             : en:00:45:53.250
  58. 00:48:17.061                             : en:00:48:17.061
  59. 00:56:24.339                             : en:00:56:24.339
  60. 01:03:47.490                             : en:01:03:47.490
  61. 01:09:16.486                             : en:01:09:16.486
  62. 01:14:17.078                             : en:01:14:17.078
  63. 01:19:04.615                             : en:01:19:04.615
  64. 01:24:10.587                             : en:01:24:10.587
  65. 01:31:51.923                             : en:01:31:51.923
  66. 01:36:00.588                             : en:01:36:00.588
  67. 01:40:03.247                             : en:01:40:03.247
  68. 01:46:51.947                             : en:01:46:51.947
复制代码

昨日奇迹 Yesterday.2019.1080p.BluRay.x264-DRONES 7.66GB-2.png






VIP会员免费任意下载本站所有资源!---点击开通
回复

使用道具 举报

级别:荣升主角 Lv.5

注册时间
2018-2-26
最后登录
2019-9-21
听众
15
收听
0
主题
0
蓝光币
302 枚
贡献
0 点
发表于 2019-9-13 09:19:29 | 显示全部楼层

我看不错噢 谢谢楼主!中国高清电影网越来越好!
VIP会员免费任意下载本站所有资源!---点击开通
回复

使用道具 举报

懒得打字嘛,点击右侧快捷回复 【右侧内容,后台自定义】
您需要登录后才可以回帖 登录 | 立即注册

本版积分规则

QQ|Archiver|手机版|小黑屋| 中国高清网 |网站地图

GMT+8, 2019-9-21 21:28 , Processed in 0.423486 second(s), 39 queries .

Powered by HDchina X3.4

Copyright 2017-2019©HDchina.All right reserved

返回顶部 联系我们