查看: 42|回复: 2

[纪录片] 峡谷回音 Echo.in.the.Canyon.2018.1080p.BluRay.x264-BRMP 7.67GB

[复制链接]

 成长值: 2570

级别:资源管理组

注册时间
2017-10-20
最后登录
2019-9-21
听众
1
收听
0
主题
83026
蓝光币
49777 枚
贡献
7354 点
发表于 2019-9-12 19:12:21 | 显示全部楼层 |阅读模式
峡谷覆信 Echo.in.the.Canyon.2018.1080p.BluRay.x264-BRMP 7.67GB-1.png

译  名 峡谷覆信
片  名 Echo In the Canyon
年  代 2018
产  地 美国
类  别 记载片 / 音乐
语  言 英语
上映日期 2018-09-20(洛杉矶电影节) / 2019-05-24(美国)
IMDb评分  7.1/10 from 488 users
IMDb链接  http://www.imdb.com/title/tt8884430
豆瓣评分 0/10 from 0 users
豆瓣链接 https://movie.douban.com/subject/33415890/
片  长 82分钟
导  演 Andrew Slater
编  剧 Eric Barrett / Andrew Slater
主  演 洛乌·阿德勒 Lou Adler
       贝克 Beck
       Justine Bennett
       杰克逊·布朗恩 Jackson Browne
       Jade Castrinos
       大卫·克罗斯比 David Crosby
       雅戈布·迪伦 Jakob Dylan
       诺拉·琼斯 Norah Jones
       罗杰·麦吉恩 Roger McGuinn
       Graham Nash
       Fernando Perdomo
       汤姆·佩蒂 Tom Petty
       米雪·菲利普斯 Michelle Phillips
       猫女魔力 Cat Power
       John Sebastian
       瑞金娜·斯派克特 Regina Spektor
       林哥·斯塔尔 Ringo Starr
       Stephen Stills
       Matt Tecu
       Brian Wilson


标  签 记载片 | 美国 | 2010s

简  介  

  聚焦具有历史意义的洛杉矶Laurel Canyon,这里诞生了一些标志性音乐团体,如飞鸟乐队、海滩男孩、水牛春田以及爸爸妈妈乐队。
  1. Video
  2. ID                                       : 1
  3. Format                                   : AVC
  4. Format/Info                              : Advanced Video Codec
  5. Format profile                           : <a href="/cdn-cgi/l/email-protection" class="__cf_email__" data-cfemail="bff7d6d8d7fff38b918e">[email protected]</a>
  6. Format settings                          : CABAC / 4 Ref Frames
  7. Format settings, CABAC                   : Yes
  8. Format settings, Reference frames        : 4 frames
  9. Codec ID                                 : V_MPEG4/ISO/AVC
  10. Duration                                 : 1 h 22 min
  11. Bit rate                                 : 11.8 Mb/s
  12. Width                                    : 1 920 pixels
  13. Height                                   : 1 080 pixels
  14. Display aspect ratio                     : 16:9
  15. Frame rate mode                          : Constant
  16. Frame rate                               : 23.976 (24000/1001) FPS
  17. Color space                              : YUV
  18. Chroma subsampling                       : 4:2:0
  19. Bit depth                                : 8 bits
  20. Scan type                                : Progressive
  21. Bits/(Pixel*Frame)                       : 0.238
  22. Stream size                              : 6.79 GiB (89%)
  23. Writing library                          : x264 core 157 r2969 d4099dd
  24. Encoding settings                        : cabac=1 / ref=4 / deblock=1:0:0 / analyse=0x3:0x133 / me=umh / subme=7 / psy=1 / psy_rd=1.00:0.00 / mixed_ref=1 / me_range=16 / chroma_me=1 / trellis=1 / 8x8dct=1 / cqm=0 / deadzone=21,11 / fast_pskip=0 / chroma_qp_offset=-2 / threads=18 / lookahead_threads=3 / sliced_threads=0 / nr=0 / decimate=1 / interlaced=0 / bluray_compat=0 / constrained_intra=0 / bframes=3 / b_pyramid=2 / b_adapt=1 / b_bias=0 / direct=1 / weightb=1 / open_gop=0 / weightp=2 / keyint=240 / keyint_min=23 / scenecut=40 / intra_refresh=0 / rc_lookahead=40 / rc=2pass / mbtree=1 / bitrate=11814 / ratetol=1.0 / qcomp=0.60 / qpmin=10 / qpmax=51 / qpstep=4 / cplxblur=20.0 / qblur=0.5 / ip_ratio=1.40 / aq=1:1.00
  25. Default                                  : Yes
  26. Forced                                   : No

  27. Audio
  28. ID                                       : 2
  29. Format                                   : DTS
  30. Format/Info                              : Digital Theater Systems
  31. Codec ID                                 : A_DTS
  32. Duration                                 : 1 h 22 min
  33. Bit rate mode                            : Constant
  34. Bit rate                                 : 1 509 kb/s
  35. Channel(s)                               : 6 channels
  36. Channel layout                           : C L R Ls Rs LFE
  37. Sampling rate                            : 48.0 kHz
  38. Frame rate                               : 93.750 FPS (512 SPF)
  39. Bit depth                                : 24 bits
  40. Compression mode                         : Lossy
  41. Stream size                              : 888 MiB (11%)
  42. Language                                 : English
  43. Default                                  : Yes
  44. Forced                                   : No

  45. Menu
  46. 00:00:00.000                             : en:Chapter 01
  47. 00:06:40.734                             : en:Chapter 02
  48. 00:14:12.018                             : en:Chapter 03
  49. 00:21:55.356                             : en:Chapter 04
  50. 00:27:13.632                             : en:Chapter 05
  51. 00:33:24.044                             : en:Chapter 06
  52. 00:41:22.021                             : en:Chapter 07
  53. 00:49:34.388                             : en:Chapter 08
  54. 00:56:21.211                             : en:Chapter 09
  55. 01:02:58.775                             : en:Chapter 10
  56. 01:10:00.738                             : en:Chapter 11
  57. 01:19:29.598                             : en:Chapter 12
复制代码

峡谷覆信 Echo.in.the.Canyon.2018.1080p.BluRay.x264-BRMP 7.67GB-2.png






VIP会员免费任意下载本站所有资源!---点击开通
回复

使用道具 举报

级别:荣升主角 Lv.5

注册时间
2018-2-26
最后登录
2019-9-21
听众
15
收听
0
主题
0
蓝光币
302 枚
贡献
0 点
发表于 2019-9-13 09:18:46 | 显示全部楼层

论坛不能没有像楼主这样的人才啊!我会一直支持中国高清电影网
VIP会员免费任意下载本站所有资源!---点击开通
回复

使用道具 举报

级别:初级观众 Lv.1

注册时间
2019-8-10
最后登录
2019-9-15
听众
2
收听
0
主题
0
蓝光币
17 枚
贡献
0 点
QQ
发表于 6 天前 | 显示全部楼层
楼主发贴辛苦了,谢谢楼主分享!我觉得中国高清电影网是注册对了!
VIP会员免费任意下载本站所有资源!---点击开通
回复

使用道具 举报

懒得打字嘛,点击右侧快捷回复 【右侧内容,后台自定义】
您需要登录后才可以回帖 登录 | 立即注册

本版积分规则

QQ|Archiver|手机版|小黑屋| 中国高清网 |网站地图

GMT+8, 2019-9-21 21:36 , Processed in 0.467493 second(s), 40 queries .

Powered by HDchina X3.4

Copyright 2017-2019©HDchina.All right reserved

返回顶部 联系我们