查看: 14|回复: 0

[剧情片] 电力之战/电流之战 The.Current.War.2017.1080p.KORSUB.HDRip.x264.AAC2.0-STUTTERSHIT 3.74GB

[复制链接]

 成长值: 2570

级别:资源管理组

注册时间
2017-10-20
最后登录
2019-9-21
听众
1
收听
0
主题
83026
蓝光币
49769 枚
贡献
7354 点
发表于 2019-9-12 18:58:25 | 显示全部楼层 |阅读模式
185855xjq1ggg5utt50f2s.png

译  名 电力之战 / 电流之战 / 电流大战(台) / 电流战争(港)
片  名 The Current War
年  代 2017
产  地 美国
类  别 剧情 / 列传 / 历史
语  言 英语
上映日期 2017-09-09(多伦多电影节) / 2019(中国大陆) / 2019-10-04(美国)
IMDb评分  6.3/10 from 2362 users
IMDb链接  http://www.imdb.com/title/tt2140507
豆瓣评分 6.5/10 from 436 users
豆瓣链接 https://movie.douban.com/subject/24325829/
片  长 107分钟
导  演 阿方索·戈麦斯-雷洪 Alfonso Gomez-Rejon
编  剧 迈克尔·米特尼克 Michael Mitnick
主  演 本尼迪克特·康伯巴奇 Benedict Cumberbatch
       汤姆·霍兰德 Tom Holland
       尼古拉斯·霍尔特 Nicholas Hoult
       迈克尔·珊农 Michael Shannon
       凯瑟琳·沃特斯顿 Katherine Waterston
       马修·麦克费登 Matthew Macfadyen
       塔彭丝·米德尔顿 Tuppence Middleton
       Conor MacNeill
       Celyn Jones
       贾森·马修森 Jason Matthewson
       Oliver Powell
       汤姆·斯威特 Tom Sweet


标  签 BenedictCumberbatch | 列传 | 美国 | 人物列传 | 历史 | 科学 | 剧情 | 2017

简  介  

  报告1880年,“电灯之父”托马斯·爱迪生(本尼迪克特·康伯巴奇 Benedict Cumberbatch 饰)与铁路富翁乔治·威斯汀豪斯(迈克尔·珊农 Michael Shannon 饰)为争取全美甚至全天下的电力供给系统,展开连场恶斗。爱迪生发现了直流电发机电,威斯 汀豪斯研发了交换电发机电,当两大发现家明争冷战之时,奥秘后起之秀尼古拉·特斯拉(尼古拉斯·霍尔特 Nicholas Hoult 饰)忽然出现…三位电力伟人会若何改变天下?
  1. Video
  2. ID                                       : 1
  3. Format                                   : AVC
  4. Format/Info                              : Advanced Video Codec
  5. Format profile                           : <a href="/cdn-cgi/l/email-protection" class="__cf_email__" data-cfemail="2b63424c436b671f051a">[email protected]</a>
  6. Format settings                          : CABAC / 4 Ref Frames
  7. Format settings, CABAC                   : Yes
  8. Format settings, Reference frames        : 4 frames
  9. Codec ID                                 : V_MPEG4/ISO/AVC
  10. Duration                                 : 1 h 42 min
  11. Bit rate                                 : 4 941 kb/s
  12. Width                                    : 1 920 pixels
  13. Height                                   : 808 pixels
  14. Display aspect ratio                     : 2.40:1
  15. Frame rate mode                          : Constant
  16. Frame rate                               : 23.976 (24000/1001) FPS
  17. Color space                              : YUV
  18. Chroma subsampling                       : 4:2:0
  19. Bit depth                                : 8 bits
  20. Scan type                                : Progressive
  21. Bits/(Pixel*Frame)                       : 0.133
  22. Stream size                              : 3.55 GiB (95%)
  23. Title                                    : The.Current.War.2017.1080p.KORSUB.HDRip.x264.AAC2.0-STUTTERSHIT
  24. Language                                 : English
  25. Default                                  : Yes
  26. Forced                                   : No
  27. Color range                              : Limited
  28. Color primaries                          : BT.709
  29. Transfer characteristics                 : BT.709
  30. Matrix coefficients                      : BT.709

  31. Audio
  32. ID                                       : 2
  33. Format                                   : AAC LC
  34. Format/Info                              : Advanced Audio Codec Low Complexity
  35. Codec ID                                 : A_AAC-2
  36. Duration                                 : 1 h 42 min
  37. Bit rate                                 : 256 kb/s
  38. Channel(s)                               : 2 channels
  39. Channel layout                           : L R
  40. Sampling rate                            : 48.0 kHz
  41. Frame rate                               : 46.875 FPS (1024 SPF)
  42. Compression mode                         : Lossy
  43. Stream size                              : 189 MiB (5%)
  44. Title                                    : The.Current.War.2017.1080p.KORSUB.HDRip.x264.AAC2.0-STUTTERSHIT
  45. Language                                 : English
  46. Default                                  : Yes
  47. Forced                                   : No
复制代码

电力之战/电流之战 The.Current.War.2017.1080p.KORSUB.HDRip.x264.AAC2.0-STUTTERSHIT 3.74GB-2.png 电力之战/电流之战 The.Current.War.2017.1080p.KORSUB.HDRip.x264.AAC2.0-STUTTERSHIT 3.74GB-3.png 电力之战/电流之战 The.Current.War.2017.1080p.KORSUB.HDRip.x264.AAC2.0-STUTTERSHIT 3.74GB-4.png





VIP会员免费任意下载本站所有资源!---点击开通
回复

使用道具 举报

懒得打字嘛,点击右侧快捷回复 【右侧内容,后台自定义】
您需要登录后才可以回帖 登录 | 立即注册

本版积分规则

QQ|Archiver|手机版|小黑屋| 中国高清网 |网站地图

GMT+8, 2019-9-21 21:21 , Processed in 0.447994 second(s), 39 queries .

Powered by HDchina X3.4

Copyright 2017-2019©HDchina.All right reserved

返回顶部 联系我们