查看: 31|回复: 0

[8bit.SDR] 赛车总动员2/3D反斗车王2 Cars.2.2011.2160p.BluRay.x264.8bit.SDR.TrueHD.7.1.Atmos-SWTYBLZ 29.81GB

[复制链接]

 成长值: 2570

级别:资源管理组

注册时间
2017-10-20
最后登录
2019-9-21
听众
1
收听
0
主题
83009
蓝光币
49641 枚
贡献
7337 点
发表于 2019-9-11 14:42:52 | 显示全部楼层 |阅读模式
赛车总带动2/3D反斗车王2 Cars.2.2011.2160p.BluRay.x264.8bit.SDR.TrueHD.7.1.Atmos-SWTYBLZ 29.81GB-1.png

译  名 赛车总带动2 / 3D反斗车王2(港) / Cars2:天下大赛(台) / 小汽车的故事2 / 汽车总带动2 / 飞车正传2
片  名 Cars 2
年  代 2011
产  地 美国
类  别 笑剧 / 动画 / 冒险
语  言 英语 / 日语 / 意大利语 / 法语
上映日期 2011-06-24(美国) / 2011-08-24(中国大陆)
IMDb评分  6.2/10 from 142508 users
IMDb链接  http://www.imdb.com/title/tt1216475
豆瓣评分 7.6/10 from 64760 users
豆瓣链接 https://movie.douban.com/subject/3036478/
片  长 106分钟
导  演 约翰·拉塞特 John Lasseter / 布拉德·刘易斯 Brad Lewis
编  剧 约翰·拉塞特 John Lasseter / 布拉德·刘易斯 Brad Lewis / 丹·福格尔曼 Dan Fogelman / 本·奎因 Ben Queen
主  演 欧文·威尔逊 Owen Wilson
       王牌接线员拉里 Larry The Cable Guy
       迈克尔·凯恩 Michael Caine
       艾米莉·莫迪默 Emily Mortimer
       艾迪·伊扎德 Eddie Izzard
       约翰·特托罗 John Turturro
       布伦特·马斯伯格 Brent Musburger
       乔·曼特纳 Joe Mantegna
       托马斯·克莱舒曼 Thomas Kretschmann
       彼得·雅各布森 Peter Jacobson
       邦尼·亨特 Bonnie Hunt
       达雷尔·沃尔特里普 Darrell Waltrip
       弗兰科·尼罗 Franco Nero
       大卫·赫伯斯 David Hobbs
       托尼·夏尔赫布 Tony Shalhoub
       杰夫·格尔林 Jeff Garlin
       詹森·艾萨克 Jason Isaacs
       布鲁斯·坎贝尔  Bruce Campbell
       詹妮弗·路易斯 Jenifer Lewis
       斯坦利·汤森德 Stanley Townsend
       维利贝·托皮奇 Velibor Topic
       锡格·汉森 Sig Hansen
       盖多·克隆尼 Guido Quaroni
       瓦妮莎·雷德格瑞夫 Vanessa Redgrave
       布拉德·刘易斯 Brad Lewis
       切奇·马林 Cheech Marin
       保罗·杜利 Paul Dooley
       伊迪·迈克莱尔 Edie McClurg
       理查德·坎德 Richard Kind
       凯瑟琳·海蒙德 Katherine Helmond
       迈克尔·沃利斯 Michael Wallis


标  签 动画 | 美国 | 皮克斯 | 笑剧 | 2011 | 迪斯尼 | 3D | 冒险

简  介  

  开辟出新能源的迈尔斯伯爵召开天下杯赛车大奖赛,各路妙手纷纷云集,独独缺了活塞杯霸主闪电麦昆(黄磊 配音)。本来他恰好回到温泉镇,与好哥们板牙(范伟 配音)、女友莎莉享用欢畅的假期。由于意大利方程式赛车法拉斯·高的搬弄,固然也有吃醋的缘由,麦昆终极赞成加出天下杯,并带着板 牙等好友一同周游天下。在日本站角逐的前一天,板牙偶然结识了英国奸细迈克飞弹和霍莉(姚晨 配音),他们正在清查一支犯罪团伙的新意向。板牙鬼使神差被霍莉看成美国来的讨论奸细,由此卷入了麻烦当中。在越日的角逐中,麦昆与法拉斯·高合作剧烈,与此同时不竭有选手意外爆缸,板牙则撞见迈克和奥秘构造火并的排场。
  因这连续串意外,麦昆和板牙的友谊遭到摆荡,而这一切的幕后老板也渐渐暴露实在脸孔……

获奖情况  

  第69届金球奖(2012)
  电影类 最好动画长片(提名)

  第39届动画安妮奖(2012)
  最好动画长片(提名)
  最好剪辑(提名) Stephen Schaffer
  最好分镜(提名)
  最好艺术指导(提名) 哈雷·杰斯普
  最好脚色设想(提名) Jay Shuster
  最好动画结果(提名) Eric Froemling / Jon Reisch
  1. Video
  2. ID                                       : 1
  3. Format                                   : AVC
  4. Format/Info                              : Advanced Video Codec
  5. Format profile                           : <a href="/cdn-cgi/l/email-protection" class="__cf_email__" data-cfemail="b0f8d9d7d8f0fc859e81">[email protected]</a>
  6. Format settings                          : CABAC / 7 Ref Frames
  7. Format settings, CABAC                   : Yes
  8. Format settings, Reference frames        : 7 frames
  9. Codec ID                                 : V_MPEG4/ISO/AVC
  10. Duration                                 : 1 h 46 min
  11. Bit rate                                 : 31.8 Mb/s
  12. Width                                    : 3 840 pixels
  13. Height                                   : 1 606 pixels
  14. Display aspect ratio                     : 2.40:1
  15. Frame rate mode                          : Constant
  16. Frame rate                               : 23.976 (24000/1001) FPS
  17. Color space                              : YUV
  18. Chroma subsampling                       : 4:2:0
  19. Bit depth                                : 8 bits
  20. Scan type                                : Progressive
  21. Bits/(Pixel*Frame)                       : 0.215
  22. Stream size                              : 23.6 GiB (79%)
  23. Title                                    : Cars.2.2011.2160p.BluRay.x264.8bit.SDR.TrueHD.7.1.Atmos-SWTYBLZ
  24. Writing library                          : x264 core 157 r2935 545de2f
  25. Encoding settings                        : cabac=1 / ref=7 / deblock=1:1:1 / analyse=0x3:0x113 / me=umh / subme=10 / psy=1 / psy_rd=0.40:0.00 / mixed_ref=1 / me_range=48 / chroma_me=1 / trellis=2 / 8x8dct=1 / cqm=0 / deadzone=21,11 / fast_pskip=1 / chroma_qp_offset=-2 / threads=50 / lookahead_threads=5 / sliced_threads=0 / nr=0 / decimate=0 / interlaced=0 / bluray_compat=0 / constrained_intra=0 / bframes=5 / b_pyramid=2 / b_adapt=2 / b_bias=0 / direct=3 / weightb=1 / open_gop=0 / weightp=2 / keyint=250 / keyint_min=23 / scenecut=40 / intra_refresh=0 / rc_lookahead=50 / rc=crf / mbtree=1 / crf=14.0 / qcomp=0.60 / qpmin=0 / qpmax=69 / qpstep=4 / ip_ratio=1.40 / aq=1:0.60
  26. Default                                  : Yes
  27. Forced                                   : No

  28. Audio #1
  29. ID                                       : 2
  30. Format                                   : MLP FBA 16-ch
  31. Format/Info                              : Meridian Lossless Packing FBA with 16-channel presentation
  32. Commercial name                          : Dolby TrueHD with Dolby Atmos
  33. Codec ID                                 : A_TRUEHD
  34. Duration                                 : 1 h 46 min
  35. Bit rate mode                            : Variable
  36. Bit rate                                 : 7 474 kb/s
  37. Maximum bit rate                         : 6 894 kb/s
  38. Channel(s)                               : 8 channels
  39. Channel layout                           : L R C LFE Ls Rs Lb Rb
  40. Sampling rate                            : 48.0 kHz
  41. Frame rate                               : 1 200.000 FPS (40 SPF)
  42. Compression mode                         : Lossless
  43. Stream size                              : 5.55 GiB (19%)
  44. Title                                    : Cars.2.2011.2160p.BluRay.x264.8bit.SDR.TrueHD.7.1.Atmos-SWTYBLZ
  45. Language                                 : English
  46. Default                                  : Yes
  47. Forced                                   : No
  48. Number of dynamic objects                : 13
  49. Bed channel count                        : 1 channel
  50. Bed channel configuration                : LFE

  51. Audio #2
  52. ID                                       : 3
  53. Format                                   : AC-3
  54. Format/Info                              : Audio Coding 3
  55. Commercial name                          : Dolby Digital
  56. Codec ID                                 : A_AC3
  57. Duration                                 : 1 h 46 min
  58. Bit rate mode                            : Constant
  59. Bit rate                                 : 640 kb/s
  60. Channel(s)                               : 6 channels
  61. Channel layout                           : L R C LFE Ls Rs
  62. Sampling rate                            : 48.0 kHz
  63. Frame rate                               : 31.250 FPS (1536 SPF)
  64. Bit depth                                : 16 bits
  65. Compression mode                         : Lossy
  66. Stream size                              : 486 MiB (2%)
  67. Title                                    : Cars.2.2011.2160p.BluRay.x264.8bit.SDR.TrueHD.7.1.Atmos-SWTYBLZ
  68. Language                                 : English
  69. Service kind                             : Complete Main
  70. Default                                  : No
  71. Forced                                   : No

  72. Text #1
  73. ID                                       : 4
  74. Format                                   : UTF-8
  75. Codec ID                                 : S_TEXT/UTF8
  76. Codec ID/Info                            : UTF-8 Plain Text
  77. Duration                                 : 1 h 37 min
  78. Bit rate                                 : 83 b/s
  79. Count of elements                        : 1536
  80. Stream size                              : 59.7 KiB (0%)
  81. Title                                    : English-SRT
  82. Language                                 : English
  83. Default                                  : Yes
  84. Forced                                   : No

  85. Text #2
  86. ID                                       : 5
  87. Format                                   : PGS
  88. Muxing mode                              : zlib
  89. Codec ID                                 : S_HDMV/PGS
  90. Codec ID/Info                            : Picture based subtitle format used on BDs/HD-DVDs
  91. Duration                                 : 1 h 37 min
  92. Bit rate                                 : 61.9 kb/s
  93. Count of elements                        : 3333
  94. Stream size                              : 43.1 MiB (0%)
  95. Title                                    : English-PGS
  96. Language                                 : English
  97. Default                                  : No
  98. Forced                                   : No

  99. Text #3
  100. ID                                       : 6
  101. Format                                   : PGS
  102. Muxing mode                              : zlib
  103. Codec ID                                 : S_HDMV/PGS
  104. Codec ID/Info                            : Picture based subtitle format used on BDs/HD-DVDs
  105. Duration                                 : 1 h 37 min
  106. Bit rate                                 : 50.8 kb/s
  107. Count of elements                        : 2884
  108. Stream size                              : 35.4 MiB (0%)
  109. Title                                    : Spanish-PGS
  110. Language                                 : Spanish
  111. Default                                  : No
  112. Forced                                   : No

  113. Menu
  114. 00:00:00.000                             : en:Chapter 01
  115. 00:01:30.006                             : en:Chapter 02
  116. 00:04:48.329                             : en:Chapter 03
  117. 00:07:44.464                             : en:Chapter 04
  118. 00:12:08.519                             : en:Chapter 05
  119. 00:17:49.777                             : en:Chapter 06
  120. 00:20:02.159                             : en:Chapter 07
  121. 00:22:52.329                             : en:Chapter 08
  122. 00:26:35.343                             : en:Chapter 09
  123. 00:30:30.995                             : en:Chapter 10
  124. 00:32:42.794                             : en:Chapter 11
  125. 00:34:14.343                             : en:Chapter 12
  126. 00:37:16.400                             : en:Chapter 13
  127. 00:40:44.859                             : en:Chapter 14
  128. 00:42:53.988                             : en:Chapter 15
  129. 00:46:19.401                             : en:Chapter 16
  130. 00:46:58.732                             : en:Chapter 17
  131. 00:49:49.361                             : en:Chapter 18
  132. 00:53:57.234                             : en:Chapter 19
  133. 00:54:58.086                             : en:Chapter 20
  134. 00:57:37.036                             : en:Chapter 21
  135. 00:59:28.565                             : en:Chapter 22
  136. 01:02:17.608                             : en:Chapter 23
  137. 01:05:57.036                             : en:Chapter 24
  138. 01:12:32.598                             : en:Chapter 25
  139. 01:14:06.733                             : en:Chapter 26
  140. 01:15:25.020                             : en:Chapter 27
  141. 01:21:13.618                             : en:Chapter 28
  142. 01:23:23.081                             : en:Chapter 29
  143. 01:29:07.759                             : en:Chapter 30
  144. 01:31:48.961                             : en:Chapter 31
  145. 01:32:42.056                             : en:Chapter 32
  146. 01:38:19.393                             : en:Chapter 33
复制代码

赛车总带动2/3D反斗车王2 Cars.2.2011.2160p.BluRay.x264.8bit.SDR.TrueHD.7.1.Atmos-SWTYBLZ 29.81GB-2.png 赛车总带动2/3D反斗车王2 Cars.2.2011.2160p.BluRay.x264.8bit.SDR.TrueHD.7.1.Atmos-SWTYBLZ 29.81GB-3.png 赛车总带动2/3D反斗车王2 Cars.2.2011.2160p.BluRay.x264.8bit.SDR.TrueHD.7.1.Atmos-SWTYBLZ 29.81GB-4.png 赛车总带动2/3D反斗车王2 Cars.2.2011.2160p.BluRay.x264.8bit.SDR.TrueHD.7.1.Atmos-SWTYBLZ 29.81GB-5.png 赛车总带动2/3D反斗车王2 Cars.2.2011.2160p.BluRay.x264.8bit.SDR.TrueHD.7.1.Atmos-SWTYBLZ 29.81GB-6.png 赛车总带动2/3D反斗车王2 Cars.2.2011.2160p.BluRay.x264.8bit.SDR.TrueHD.7.1.Atmos-SWTYBLZ 29.81GB-7.png 赛车总带动2/3D反斗车王2 Cars.2.2011.2160p.BluRay.x264.8bit.SDR.TrueHD.7.1.Atmos-SWTYBLZ 29.81GB-8.png






本帖隐藏的下载地址需要VIP会员才可阅读,您需要升级才可阅读,点击这里升级VIP

VIP会员免费任意下载本站所有资源!---点击开通
回复

使用道具 举报

懒得打字嘛,点击右侧快捷回复 【右侧内容,后台自定义】
您需要登录后才可以回帖 登录 | 立即注册

本版积分规则

QQ|Archiver|手机版|小黑屋| 中国高清网 |网站地图

GMT+8, 2019-9-21 15:26 , Processed in 0.460064 second(s), 39 queries .

Powered by HDchina X3.4

Copyright 2017-2019©HDchina.All right reserved

返回顶部 联系我们