查看: 20|回复: 0

[10bit.SDR] 赛车总动员2/3D反斗车王2 Cars.2.2011.2160p.BluRay.x265.10bit.SDR.TrueHD.7.1.Atmos-SWTYBLZ 27.61GB

[复制链接]

 成长值: 2570

级别:资源管理组

注册时间
2017-10-20
最后登录
2019-9-21
听众
1
收听
0
主题
83009
蓝光币
49643 枚
贡献
7337 点
发表于 2019-9-11 14:31:16 | 显示全部楼层 |阅读模式
赛车总带动2/3D反斗车王2 Cars.2.2011.2160p.BluRay.x265.10bit.SDR.TrueHD.7.1.Atmos-SWTYBLZ 27.61GB-1.png

译  名 赛车总带动2 / 3D反斗车王2(港) / Cars2:天下大赛(台) / 小汽车的故事2 / 汽车总带动2 / 飞车正传2
片  名 Cars 2
年  代 2011
产  地 美国
类  别 笑剧 / 动画 / 冒险
语  言 英语 / 日语 / 意大利语 / 法语
上映日期 2011-06-24(美国) / 2011-08-24(中国大陆)
IMDb评分  6.2/10 from 142508 users
IMDb链接  http://www.imdb.com/title/tt1216475
豆瓣评分 7.6/10 from 64760 users
豆瓣链接 https://movie.douban.com/subject/3036478/
片  长 106分钟
导  演 约翰·拉塞特 John Lasseter / 布拉德·刘易斯 Brad Lewis
编  剧 约翰·拉塞特 John Lasseter / 布拉德·刘易斯 Brad Lewis / 丹·福格尔曼 Dan Fogelman / 本·奎因 Ben Queen
主  演 欧文·威尔逊 Owen Wilson
       王牌接线员拉里 Larry The Cable Guy
       迈克尔·凯恩 Michael Caine
       艾米莉·莫迪默 Emily Mortimer
       艾迪·伊扎德 Eddie Izzard
       约翰·特托罗 John Turturro
       布伦特·马斯伯格 Brent Musburger
       乔·曼特纳 Joe Mantegna
       托马斯·克莱舒曼 Thomas Kretschmann
       彼得·雅各布森 Peter Jacobson
       邦尼·亨特 Bonnie Hunt
       达雷尔·沃尔特里普 Darrell Waltrip
       弗兰科·尼罗 Franco Nero
       大卫·赫伯斯 David Hobbs
       托尼·夏尔赫布 Tony Shalhoub
       杰夫·格尔林 Jeff Garlin
       詹森·艾萨克 Jason Isaacs
       布鲁斯·坎贝尔  Bruce Campbell
       詹妮弗·路易斯 Jenifer Lewis
       斯坦利·汤森德 Stanley Townsend
       维利贝·托皮奇 Velibor Topic
       锡格·汉森 Sig Hansen
       盖多·克隆尼 Guido Quaroni
       瓦妮莎·雷德格瑞夫 Vanessa Redgrave
       布拉德·刘易斯 Brad Lewis
       切奇·马林 Cheech Marin
       保罗·杜利 Paul Dooley
       伊迪·迈克莱尔 Edie McClurg
       理查德·坎德 Richard Kind
       凯瑟琳·海蒙德 Katherine Helmond
       迈克尔·沃利斯 Michael Wallis


标  签 动画 | 美国 | 皮克斯 | 笑剧 | 2011 | 迪斯尼 | 3D | 冒险

简  介  

  开辟出新能源的迈尔斯伯爵召开天下杯赛车大奖赛,各路妙手纷纷云集,独独缺了活塞杯霸主闪电麦昆(黄磊 配音)。本来他恰好回到温泉镇,与好哥们板牙(范伟 配音)、女友莎莉享用欢畅的假期。由于意大利方程式赛车法拉斯·高的搬弄,固然也有吃醋的缘由,麦昆终极赞成加出天下杯,并带着板 牙等好友一同周游天下。在日本站角逐的前一天,板牙偶然结识了英国奸细迈克飞弹和霍莉(姚晨 配音),他们正在清查一支犯罪团伙的新意向。板牙鬼使神差被霍莉看成美国来的讨论奸细,由此卷入了麻烦当中。在越日的角逐中,麦昆与法拉斯·高合作剧烈,与此同时不竭有选手意外爆缸,板牙则撞见迈克和奥秘构造火并的排场。
  因这连续串意外,麦昆和板牙的友谊遭到摆荡,而这一切的幕后老板也渐渐暴露实在脸孔……

获奖情况  

  第69届金球奖(2012)
  电影类 最好动画长片(提名)

  第39届动画安妮奖(2012)
  最好动画长片(提名)
  最好剪辑(提名) Stephen Schaffer
  最好分镜(提名)
  最好艺术指导(提名) 哈雷·杰斯普
  最好脚色设想(提名) Jay Shuster
  最好动画结果(提名) Eric Froemling / Jon Reisch
  1. Video
  2. ID                                       : 1
  3. Format                                   : HEVC
  4. Format/Info                              : High Efficiency Video Coding
  5. Format profile                           : Main <a href="/cdn-cgi/l/email-protection" class="__cf_email__" data-cfemail="fccdccbcb0c9d2cd">[email protected]</a>@High
  6. Codec ID                                 : V_MPEGH/ISO/HEVC
  7. Duration                                 : 1 h 46 min
  8. Bit rate                                 : 28.9 Mb/s
  9. Width                                    : 3 840 pixels
  10. Height                                   : 1 606 pixels
  11. Display aspect ratio                     : 2.40:1
  12. Frame rate mode                          : Constant
  13. Frame rate                               : 23.976 (24000/1001) FPS
  14. Color space                              : YUV
  15. Chroma subsampling                       : 4:2:0
  16. Bit depth                                : 10 bits
  17. Bits/(Pixel*Frame)                       : 0.195
  18. Stream size                              : 21.4 GiB (78%)
  19. Title                                    : Cars.2.2011.2160p.BluRay.x265.10bit.SDR.TrueHD.7.1.Atmos-SWTYBLZ
  20. Writing library                          : x265 3.0_RC0614145ecaf2:[Windows][GCC 8.2.1][64 bit] 10bit
  21. Encoding settings                        : cpuid=1111039 / frame-threads=16 / numa-pools=24,24,24,24 / wpp / no-pmode / no-pme / no-psnr / no-ssim / log-level=2 / input-csp=1 / input-res=3840x1606 / interlace=0 / total-frames=152851 / level-idc=51 / high-tier=1 / uhd-bd=0 / ref=3 / no-allow-non-conformance / repeat-headers / annexb / aud / hrd / info / hash=0 / no-temporal-layers / no-open-gop / min-keyint=1 / keyint=24 / gop-lookahead=0 / bframes=6 / b-adapt=2 / b-pyramid / bframe-bias=0 / rc-lookahead=25 / lookahead-slices=4 / scenecut=40 / radl=0 / no-splice / no-intra-refresh / ctu=64 / min-cu-size=8 / no-rect / no-amp / max-tu-size=32 / tu-inter-depth=1 / tu-intra-depth=1 / limit-tu=0 / rdoq-level=0 / dynamic-rd=0.00 / no-ssim-rd / signhide / no-tskip / nr-intra=0 / nr-inter=0 / no-constrained-intra / strong-intra-smoothing / max-merge=2 / limit-refs=3 / no-limit-modes / me=1 / subme=2 / merange=57 / temporal-mvp / weightp / no-weightb / no-analyze-src-pics / deblock=1:1 / no-sao / no-sao-non-deblock / rd=3 / no-early-skip / rskip / no-fast-intra / no-tskip-fast / no-cu-lossless / no-b-intra / no-splitrd-skip / rdpenalty=0 / psy-rd=0.40 / psy-rdoq=0.00 / no-rd-refine / no-lossless / cbqpoffs=0 / crqpoffs=0 / rc=crf / crf=12.0 / qcomp=0.60 / qpstep=4 / stats-write=0 / stats-read=0 / vbv-maxrate=160000 / vbv-bufsize=160000 / vbv-init=0.9 / crf-max=0.0 / crf-min=0.0 / ipratio=1.40 / pbratio=1.30 / aq-mode=1 / aq-strength=0.40 / cutree / zone-count=0 / no-strict-cbr / qg-size=32 / no-rc-grain / qpmax=69 / qpmin=0 / no-const-vbv / sar=1 / overscan=0 / videoformat=5 / range=0 / colorprim=2 / transfer=2 / colormatrix=2 / chromaloc=0 / display-window=0 / max-cll=0,0 / min-luma=0 / max-luma=1023 / log2-max-poc-lsb=8 / vui-timing-info / vui-hrd-info / slices=1 / opt-qp-pps / opt-ref-list-length-pps / no-multi-pass-opt-rps / scenecut-bias=0.05 / no-opt-cu-delta-qp / no-aq-motion / no-hdr / no-hdr-opt / no-dhdr10-opt / no-idr-recovery-sei / analysis-reuse-level=5 / scale-factor=0 / refine-intra=0 / refine-inter=0 / refine-mv=0 / refine-ctu-distortion=0 / no-limit-sao / ctu-info=0 / no-lowpass-dct / refine-analysis-type=0 / copy-pic=1 / max-ausize-factor=1.0 / no-dynamic-refine / no-single-sei / no-hevc-aq / qp-adaptation-range=1.00
  22. Default                                  : Yes
  23. Forced                                   : No

  24. Audio #1
  25. ID                                       : 2
  26. Format                                   : MLP FBA 16-ch
  27. Format/Info                              : Meridian Lossless Packing FBA with 16-channel presentation
  28. Commercial name                          : Dolby TrueHD with Dolby Atmos
  29. Codec ID                                 : A_TRUEHD
  30. Duration                                 : 1 h 46 min
  31. Bit rate mode                            : Variable
  32. Bit rate                                 : 7 474 kb/s
  33. Maximum bit rate                         : 6 894 kb/s
  34. Channel(s)                               : 8 channels
  35. Channel layout                           : L R C LFE Ls Rs Lb Rb
  36. Sampling rate                            : 48.0 kHz
  37. Frame rate                               : 1 200.000 FPS (40 SPF)
  38. Compression mode                         : Lossless
  39. Stream size                              : 5.55 GiB (20%)
  40. Title                                    : Cars.2.2011.2160p.BluRay.x265.10bit.SDR.TrueHD.7.1.Atmos-SWTYBLZ
  41. Language                                 : English
  42. Default                                  : Yes
  43. Forced                                   : No
  44. Number of dynamic objects                : 13
  45. Bed channel count                        : 1 channel
  46. Bed channel configuration                : LFE

  47. Audio #2
  48. ID                                       : 3
  49. Format                                   : AC-3
  50. Format/Info                              : Audio Coding 3
  51. Commercial name                          : Dolby Digital
  52. Codec ID                                 : A_AC3
  53. Duration                                 : 1 h 46 min
  54. Bit rate mode                            : Constant
  55. Bit rate                                 : 640 kb/s
  56. Channel(s)                               : 6 channels
  57. Channel layout                           : L R C LFE Ls Rs
  58. Sampling rate                            : 48.0 kHz
  59. Frame rate                               : 31.250 FPS (1536 SPF)
  60. Bit depth                                : 16 bits
  61. Compression mode                         : Lossy
  62. Stream size                              : 486 MiB (2%)
  63. Title                                    : Cars.2.2011.2160p.BluRay.x265.10bit.SDR.TrueHD.7.1.Atmos-SWTYBLZ
  64. Language                                 : English
  65. Service kind                             : Complete Main
  66. Default                                  : No
  67. Forced                                   : No

  68. Text #1
  69. ID                                       : 4
  70. Format                                   : UTF-8
  71. Codec ID                                 : S_TEXT/UTF8
  72. Codec ID/Info                            : UTF-8 Plain Text
  73. Duration                                 : 1 h 37 min
  74. Bit rate                                 : 83 b/s
  75. Count of elements                        : 1536
  76. Stream size                              : 59.7 KiB (0%)
  77. Title                                    : English-SRT
  78. Language                                 : English
  79. Default                                  : Yes
  80. Forced                                   : No

  81. Text #2
  82. ID                                       : 5
  83. Format                                   : PGS
  84. Muxing mode                              : zlib
  85. Codec ID                                 : S_HDMV/PGS
  86. Codec ID/Info                            : Picture based subtitle format used on BDs/HD-DVDs
  87. Duration                                 : 1 h 37 min
  88. Bit rate                                 : 61.9 kb/s
  89. Count of elements                        : 3333
  90. Stream size                              : 43.1 MiB (0%)
  91. Title                                    : English-PGS
  92. Language                                 : English
  93. Default                                  : No
  94. Forced                                   : No

  95. Text #3
  96. ID                                       : 6
  97. Format                                   : PGS
  98. Muxing mode                              : zlib
  99. Codec ID                                 : S_HDMV/PGS
  100. Codec ID/Info                            : Picture based subtitle format used on BDs/HD-DVDs
  101. Duration                                 : 1 h 37 min
  102. Bit rate                                 : 50.8 kb/s
  103. Count of elements                        : 2884
  104. Stream size                              : 35.4 MiB (0%)
  105. Title                                    : Spanish-PGS
  106. Language                                 : Spanish
  107. Default                                  : No
  108. Forced                                   : No

  109. Menu
  110. 00:00:00.000                             : en:Chapter 01
  111. 00:01:30.006                             : en:Chapter 02
  112. 00:04:48.329                             : en:Chapter 03
  113. 00:07:44.464                             : en:Chapter 04
  114. 00:12:08.519                             : en:Chapter 05
  115. 00:17:49.777                             : en:Chapter 06
  116. 00:20:02.159                             : en:Chapter 07
  117. 00:22:52.329                             : en:Chapter 08
  118. 00:26:35.343                             : en:Chapter 09
  119. 00:30:30.995                             : en:Chapter 10
  120. 00:32:42.794                             : en:Chapter 11
  121. 00:34:14.343                             : en:Chapter 12
  122. 00:37:16.400                             : en:Chapter 13
  123. 00:40:44.859                             : en:Chapter 14
  124. 00:42:53.988                             : en:Chapter 15
  125. 00:46:19.401                             : en:Chapter 16
  126. 00:46:58.732                             : en:Chapter 17
  127. 00:49:49.361                             : en:Chapter 18
  128. 00:53:57.234                             : en:Chapter 19
  129. 00:54:58.086                             : en:Chapter 20
  130. 00:57:37.036                             : en:Chapter 21
  131. 00:59:28.565                             : en:Chapter 22
  132. 01:02:17.608                             : en:Chapter 23
  133. 01:05:57.036                             : en:Chapter 24
  134. 01:12:32.598                             : en:Chapter 25
  135. 01:14:06.733                             : en:Chapter 26
  136. 01:15:25.020                             : en:Chapter 27
  137. 01:21:13.618                             : en:Chapter 28
  138. 01:23:23.081                             : en:Chapter 29
  139. 01:29:07.759                             : en:Chapter 30
  140. 01:31:48.961                             : en:Chapter 31
  141. 01:32:42.056                             : en:Chapter 32
  142. 01:38:19.393                             : en:Chapter 33
复制代码

赛车总带动2/3D反斗车王2 Cars.2.2011.2160p.BluRay.x265.10bit.SDR.TrueHD.7.1.Atmos-SWTYBLZ 27.61GB-2.png 赛车总带动2/3D反斗车王2 Cars.2.2011.2160p.BluRay.x265.10bit.SDR.TrueHD.7.1.Atmos-SWTYBLZ 27.61GB-3.png 赛车总带动2/3D反斗车王2 Cars.2.2011.2160p.BluRay.x265.10bit.SDR.TrueHD.7.1.Atmos-SWTYBLZ 27.61GB-4.png 赛车总带动2/3D反斗车王2 Cars.2.2011.2160p.BluRay.x265.10bit.SDR.TrueHD.7.1.Atmos-SWTYBLZ 27.61GB-5.png 赛车总带动2/3D反斗车王2 Cars.2.2011.2160p.BluRay.x265.10bit.SDR.TrueHD.7.1.Atmos-SWTYBLZ 27.61GB-6.png 赛车总带动2/3D反斗车王2 Cars.2.2011.2160p.BluRay.x265.10bit.SDR.TrueHD.7.1.Atmos-SWTYBLZ 27.61GB-7.png 赛车总带动2/3D反斗车王2 Cars.2.2011.2160p.BluRay.x265.10bit.SDR.TrueHD.7.1.Atmos-SWTYBLZ 27.61GB-8.png






本帖隐藏的下载地址需要VIP会员才可阅读,您需要升级才可阅读,点击这里升级VIP

VIP会员免费任意下载本站所有资源!---点击开通
回复

使用道具 举报

懒得打字嘛,点击右侧快捷回复 【右侧内容,后台自定义】
您需要登录后才可以回帖 登录 | 立即注册

本版积分规则

QQ|Archiver|手机版|小黑屋| 中国高清网 |网站地图

GMT+8, 2019-9-21 15:30 , Processed in 0.467967 second(s), 39 queries .

Powered by HDchina X3.4

Copyright 2017-2019©HDchina.All right reserved

返回顶部 联系我们