查看: 34|回复: 0

[8bit.SDR] 赌城风云/赌国风云 Casino.1995.2160p.BluRay.x264.8bit.SDR.DTS-X.7.1-SWTYBLZ 70.37GB

[复制链接]

 成长值: 2560

级别:资源管理组

注册时间
2017-10-20
最后登录
2019-9-19
听众
1
收听
0
主题
82921
蓝光币
49296 枚
贡献
7249 点
发表于 2019-9-11 14:15:47 | 显示全部楼层 |阅读模式
赌城风云/赌国风云 Casino.1995.2160p.BluRay.x264.8bit.SDR.DTS-X.7.1-SWTYBLZ 70.37GB-1.png

译  名 赌城风云 / 赌国风云 / 赌场
片  名 Casino
年  代 1995
产  地 美国 / 法国
类  别 剧情 / 列传 / 犯罪
语  言 英语 / 法语
上映日期 1995-11-22
IMDb评分  8.2/10 from 419999 users
IMDb链接  http://www.imdb.com/title/tt0112641
豆瓣评分 8.2/10 from 24223 users
豆瓣链接 https://movie.douban.com/subject/1299799/
片  长 178 分钟
导  演 Martin Scorsese
编  剧 Nicholas Pileggi / Martin Scorsese
主  演 Robert De Niro
       Sharon Stone
       Joe Pesci
       James Woods
       Frank Vincent


标  签 黑帮 | 罗伯特·德尼罗 | 马丁·斯科塞斯 | 美国 | 犯罪 | MartinScorsese | RobertDeNiro | 美国电影

简  介  

  电影《赌城风云》是由大导演马丁·斯科塞斯与老拍档罗伯特·德尼罗的第八度合作。萨姆·“埃斯”·罗思坦(罗伯特·德尼罗 Robert De Niro 饰)抱着“赌博是一桩需要认真看待的奇迹”这个信心经营这一家拉斯维加斯的赌场。这个信心使他的赌场买卖兴盛,而也让他成为富四一方的富翁。可是自从他娶了妓女身世的金姬(莎朗·斯通 Sharon Stone 饰)后,一切都发生了改变。金姬是个得寸进尺,嗜好酒和毒品的美丽女人,对前男友旧情不忘甚至给他送钱;黑社会老迈派来庇护萨姆的尼基(乔·佩西 Joe Pesci 饰)总是冒犯罪令,被警方制止踏足赌场,还不量力要当老板;萨姆解雇了不负义务的雇员却获咎了当地的官员;更糟糕的是,萨姆和昔日的合作伙伴间的磨擦加重。一切的一切,都使萨姆七上八下……

获奖情况  

  第68届奥斯卡金像奖(1996)
  最好女配角(提名) 莎朗·斯通
  1. Video
  2. ID                                       : 1
  3. Format                                   : AVC
  4. Format/Info                              : Advanced Video Codec
  5. Format profile                           : <a href="/cdn-cgi/l/email-protection" class="__cf_email__" data-cfemail="d991b0beb19995ecf7e8">[email protected]</a>
  6. Format settings                          : CABAC / 5 Ref Frames
  7. Format settings, CABAC                   : Yes
  8. Format settings, Reference frames        : 5 frames
  9. Codec ID                                 : V_MPEG4/ISO/AVC
  10. Duration                                 : 2 h 58 min
  11. Bit rate                                 : 52.1 Mb/s
  12. Width                                    : 3 840 pixels
  13. Height                                   : 1 634 pixels
  14. Display aspect ratio                     : 2.35:1
  15. Frame rate mode                          : Constant
  16. Frame rate                               : 23.976 (24000/1001) FPS
  17. Color space                              : YUV
  18. Chroma subsampling                       : 4:2:0
  19. Bit depth                                : 8 bits
  20. Scan type                                : Progressive
  21. Bits/(Pixel*Frame)                       : 0.346
  22. Stream size                              : 64.9 GiB (92%)
  23. Title                                    : Casino.1995.2160p.BluRay.x264.8bit.SDR.DTS-X.7.1-SWTYBLZ
  24. Writing library                          : x264 core 157 r2935 545de2f
  25. Encoding settings                        : cabac=1 / ref=5 / deblock=1:-1:-1 / analyse=0x3:0x113 / me=umh / subme=10 / psy=1 / psy_rd=1.00:0.15 / mixed_ref=1 / me_range=48 / chroma_me=1 / trellis=2 / 8x8dct=1 / cqm=0 / deadzone=21,11 / fast_pskip=1 / chroma_qp_offset=-3 / threads=48 / lookahead_threads=4 / sliced_threads=0 / nr=0 / decimate=0 / interlaced=0 / bluray_compat=0 / constrained_intra=0 / bframes=3 / b_pyramid=2 / b_adapt=2 / b_bias=0 / direct=3 / weightb=1 / open_gop=0 / weightp=2 / keyint=250 / keyint_min=23 / scenecut=40 / intra_refresh=0 / rc_lookahead=50 / rc=crf / mbtree=1 / crf=18.0 / qcomp=0.60 / qpmin=0 / qpmax=69 / qpstep=4 / ip_ratio=1.40 / aq=1:1.00
  26. Default                                  : Yes
  27. Forced                                   : No

  28. Audio #1
  29. ID                                       : 2
  30. Format                                   : DTS XLL X
  31. Format/Info                              : Digital Theater Systems
  32. Commercial name                          : DTS-HD Master Audio
  33. Codec ID                                 : A_DTS
  34. Duration                                 : 2 h 58 min
  35. Bit rate mode                            : Variable
  36. Bit rate                                 : 3 508 kb/s
  37. Channel(s)                               : 8 channels
  38. Channel(s)_Original                      : Object Based
  39. Channel layout                           : Object Based
  40. Sampling rate                            : 48.0 kHz
  41. Frame rate                               : 93.750 FPS (512 SPF)
  42. Bit depth                                : 24 bits
  43. Stream size                              : 4.37 GiB (6%)
  44. Title                                    : Casino.1995.2160p.BluRay.x264.8bit.SDR.DTS-X.7.1-SWTYBLZ
  45. Language                                 : English
  46. Default                                  : Yes
  47. Forced                                   : No

  48. Audio #2
  49. ID                                       : 3
  50. Format                                   : AC-3
  51. Format/Info                              : Audio Coding 3
  52. Commercial name                          : Dolby Digital
  53. Codec ID                                 : A_AC3
  54. Duration                                 : 2 h 58 min
  55. Bit rate mode                            : Constant
  56. Bit rate                                 : 640 kb/s
  57. Channel(s)                               : 6 channels
  58. Channel layout                           : L R C LFE Ls Rs
  59. Sampling rate                            : 48.0 kHz
  60. Frame rate                               : 31.250 FPS (1536 SPF)
  61. Bit depth                                : 16 bits
  62. Compression mode                         : Lossy
  63. Stream size                              : 816 MiB (1%)
  64. Title                                    : Casino.1995.2160p.BluRay.x264.8bit.SDR.DTS-X.7.1-SWTYBLZ
  65. Language                                 : English
  66. Service kind                             : Complete Main
  67. Default                                  : No
  68. Forced                                   : No

  69. Text #1
  70. ID                                       : 4
  71. Format                                   : UTF-8
  72. Codec ID                                 : S_TEXT/UTF8
  73. Codec ID/Info                            : UTF-8 Plain Text
  74. Duration                                 : 2 h 51 min
  75. Bit rate                                 : 99 b/s
  76. Count of elements                        : 2790
  77. Stream size                              : 125 KiB (0%)
  78. Title                                    : English-SRT
  79. Language                                 : English
  80. Default                                  : Yes
  81. Forced                                   : No

  82. Text #2
  83. ID                                       : 5
  84. Format                                   : PGS
  85. Muxing mode                              : zlib
  86. Codec ID                                 : S_HDMV/PGS
  87. Codec ID/Info                            : Picture based subtitle format used on BDs/HD-DVDs
  88. Duration                                 : 2 h 55 min
  89. Bit rate                                 : 66.1 kb/s
  90. Count of elements                        : 7288
  91. Stream size                              : 82.9 MiB (0%)
  92. Title                                    : English-PGS
  93. Language                                 : English
  94. Default                                  : No
  95. Forced                                   : No

  96. Text #3
  97. ID                                       : 6
  98. Format                                   : PGS
  99. Muxing mode                              : zlib
  100. Codec ID                                 : S_HDMV/PGS
  101. Codec ID/Info                            : Picture based subtitle format used on BDs/HD-DVDs
  102. Duration                                 : 2 h 55 min
  103. Bit rate                                 : 51.3 kb/s
  104. Count of elements                        : 5414
  105. Stream size                              : 64.5 MiB (0%)
  106. Title                                    : French-PGS
  107. Language                                 : French
  108. Default                                  : No
  109. Forced                                   : No

  110. Text #4
  111. ID                                       : 7
  112. Format                                   : PGS
  113. Muxing mode                              : zlib
  114. Codec ID                                 : S_HDMV/PGS
  115. Codec ID/Info                            : Picture based subtitle format used on BDs/HD-DVDs
  116. Duration                                 : 2 h 55 min
  117. Bit rate                                 : 39.8 kb/s
  118. Count of elements                        : 5252
  119. Stream size                              : 50.0 MiB (0%)
  120. Title                                    : Spanish-PGS
  121. Language                                 : Spanish
  122. Default                                  : No
  123. Forced                                   : No

  124. Text #5
  125. ID                                       : 8
  126. Format                                   : PGS
  127. Muxing mode                              : zlib
  128. Codec ID                                 : S_HDMV/PGS
  129. Codec ID/Info                            : Picture based subtitle format used on BDs/HD-DVDs
  130. Duration                                 : 2 h 57 min
  131. Bit rate                                 : 31.4 kb/s
  132. Count of elements                        : 4846
  133. Stream size                              : 39.9 MiB (0%)
  134. Title                                    : Japanese-PGS
  135. Language                                 : Japanese
  136. Default                                  : No
  137. Forced                                   : No

  138. Text #6
  139. ID                                       : 9
  140. Format                                   : PGS
  141. Muxing mode                              : zlib
  142. Codec ID                                 : S_HDMV/PGS
  143. Codec ID/Info                            : Picture based subtitle format used on BDs/HD-DVDs
  144. Duration                                 : 2 h 57 min
  145. Bit rate                                 : 53.3 kb/s
  146. Count of elements                        : 5520
  147. Stream size                              : 67.7 MiB (0%)
  148. Title                                    : Portuguese-PGS
  149. Language                                 : Portuguese
  150. Default                                  : No
  151. Forced                                   : No

  152. Menu
  153. 00:00:00.000                             : en:Chapter 01
  154. 00:04:55.461                             : en:Chapter 02
  155. 00:21:57.816                             : en:Chapter 03
  156. 00:27:49.542                             : en:Chapter 04
  157. 00:33:46.399                             : en:Chapter 05
  158. 00:38:56.834                             : en:Chapter 06
  159. 00:58:22.999                             : en:Chapter 07
  160. 01:06:10.967                             : en:Chapter 08
  161. 01:26:24.470                             : en:Chapter 09
  162. 01:31:49.545                             : en:Chapter 10
  163. 02:00:29.305                             : en:Chapter 11
  164. 02:14:10.125                             : en:Chapter 12
  165. 02:28:31.277                             : en:Chapter 13
  166. 02:39:55.711                             : en:Chapter 14
  167. 02:46:56.047                             : en:Chapter 15
  168. 02:50:12.035                             : en:Chapter 16
复制代码

赌城风云/赌国风云 Casino.1995.2160p.BluRay.x264.8bit.SDR.DTS-X.7.1-SWTYBLZ 70.37GB-2.png 赌城风云/赌国风云 Casino.1995.2160p.BluRay.x264.8bit.SDR.DTS-X.7.1-SWTYBLZ 70.37GB-3.png 赌城风云/赌国风云 Casino.1995.2160p.BluRay.x264.8bit.SDR.DTS-X.7.1-SWTYBLZ 70.37GB-4.png 赌城风云/赌国风云 Casino.1995.2160p.BluRay.x264.8bit.SDR.DTS-X.7.1-SWTYBLZ 70.37GB-5.png 赌城风云/赌国风云 Casino.1995.2160p.BluRay.x264.8bit.SDR.DTS-X.7.1-SWTYBLZ 70.37GB-6.png 赌城风云/赌国风云 Casino.1995.2160p.BluRay.x264.8bit.SDR.DTS-X.7.1-SWTYBLZ 70.37GB-7.png 赌城风云/赌国风云 Casino.1995.2160p.BluRay.x264.8bit.SDR.DTS-X.7.1-SWTYBLZ 70.37GB-8.png






本帖隐藏的下载地址需要VIP会员才可阅读,您需要升级才可阅读,点击这里升级VIP

VIP会员免费任意下载本站所有资源!---点击开通
回复

使用道具 举报

懒得打字嘛,点击右侧快捷回复 【右侧内容,后台自定义】
您需要登录后才可以回帖 登录 | 立即注册

本版积分规则

QQ|Archiver|手机版|小黑屋| 中国高清网 |网站地图

GMT+8, 2019-9-20 05:02 , Processed in 0.410819 second(s), 39 queries .

Powered by HDchina X3.4

Copyright 2017-2019©HDchina.All right reserved

返回顶部 联系我们