查看: 35|回复: 0

[10bit.SDR] 勇敢传说 Brave.2012.2160p.BluRay.x265.10bit.SDR.DTS-HD.MA.TrueHD.7.1.Atmos-SWTYBLZ 18.95GB

[复制链接]

 成长值: 2560

级别:资源管理组

注册时间
2017-10-20
最后登录
2019-9-19
听众
1
收听
0
主题
82921
蓝光币
49296 枚
贡献
7249 点
发表于 2019-9-11 14:13:02 | 显示全部楼层 |阅读模式
勇敢传闻 Brave.2012.2160p.BluRay.x265.10bit.SDR.DTS-HD.MA.TrueHD.7.1.Atmos-SWTYBLZ 18.95GB-1.png

译  名 勇敢传闻 / Bear and the Bow / 勇敢 / 勇敢传闻之幻险森林(港) / 勇敢的公主 / 熊与弓
片  名 Brave
年  代 2012
产  地 美国
类  别 笑剧 / 动画 / 奇异 / 冒险
语  言 英语
上映日期 2012-06-10(西雅图电影节) / 2012-06-19(中国大陆) / 2012-06-22(美国)
IMDb评分  7.1/10 from 343939 users
IMDb链接  http://www.imdb.com/title/tt1217209
豆瓣评分 7.5/10 from 114455 users
豆瓣链接 https://movie.douban.com/subject/3036473/
片  长 93分钟
导  演 马克?安德鲁斯 Mark Andrews / 布兰达?查普 Brenda Chapman / 史蒂夫·普切尔 Steve Purcell
编  剧 布兰达?查普 Brenda Chapman / 艾琳·梅琪 Irene Mecchi / 马克?安德鲁斯 Mark Andrews / 史蒂夫·普切尔 Steve Purcell
主  演 凯莉·麦克唐纳 Kelly Macdonald
       艾玛·汤普森 Emma Thompson
       比利·康诺利 Billy Connolly
       朱丽·沃特斯 Julie Walters
       罗彼·考特拉尼 Robbie Coltrane
       凯文·麦克基德 Kevin McKidd
       克雷格·费格森 Craig Ferguson
       莎莉·金霍恩 Sally Kinghorn
       伊丽·弗雷泽 Eilidh Fraser
       佩吉·巴克 Peigi Barker
       史蒂芬·克里 Steven Cree
       卡勒姆·奥尼尔 Callum O'Neill
       帕特里克·杜尔 Patrick Doyle
       约翰·拉岑贝格 John Ratzenberger
       史蒂夫·波赛尔 Steve Purcell


标  签 动画 | 美国 | 皮克斯 | 亲情 | Disney | 2012 | 笑剧 | 长大

简  介  

  久长以来,那些巨大的战争故事和魔幻的传闻一向被人们口口相传,一代又一代,生生不息在这片延绵又奥秘的苏格兰高地上。迪士尼?皮克斯的又一诚意之作,勇敢的梅莉达抗争传统约束,追求自在从而改变自己命运的绮丽故事横空出世。梅莉达是佛格国王与艾莉诺皇后的长女,她是一位出色的弓箭手, 也有任性不羁,《勇敢传闻》报告的就是她的冒险故事。
  为了走出自己的生活之路,梅莉达拒绝承袭对于3个部落首领(丁瓦、麦金、麦葛)来说崇高不成加害的陈腐传统。梅莉达的冒失给她的王国带去了紊乱和灾难,当她向森林中的女巫追求帮助的时辰,女巫却实施了灾难性的魔咒。
  相继而来的灾难强逼梅莉达使出满身解术——包括自己的三胞胎弟弟们——来帮助她消除咒语,寻获勇气的真理。
  由马克?安德鲁斯与布兰达?查普结合执导,凯瑟琳?萨拉斐安监制的这部《勇敢传闻》,布满了巨大冒险传奇,打造出典范的人物脚色,固然还有备受全球影迷期待的皮克斯式诙谐。

获奖情况  

  第85届奥斯卡金像奖(2013)
  最好动画长片 布兰达?查普曼 / 马克?安德鲁斯

  第70届金球奖(2013)
  电影类 最好动画长片

  第40届动画安妮奖(2013)
  最好动画长片(提名)
  最好编剧(提名) 布兰达?查普曼 / 马克?安德鲁斯 / 艾琳·梅琪
  最好配音(提名) 凯莉·麦克唐纳
  最好配乐(提名) 帕特里克·道尔 / 马克?安德鲁斯
  最好剪辑 David Suther
  最好艺术指导 Steve Pilcher
  最好动画脚色(提名) Jaime Landes
  最好动画结果(提名) Keith Daniel Klohn / Bill Watral

  第78届纽约影评人协会奖(2012)
  最好动画片(提名)

  第18届美国批评家挑选电影奖(2013)
  最好动画片(提名)
  最好歌曲(提名)

  第17届金卫星奖(2012)
  电影部分 最好动画片(提名)
  电影部分 最好原创歌曲(提名)

  第11届华盛顿影评人协会奖(2012)
  最好动画片(提名)

  第17届圣地亚哥影评人协会奖(2012)
  最好动画片(提名)

  第25届芝加哥影评人协会奖(2012)
  最好动画片(提名)

  第12届凤凰城影评人协会奖(2012)
  最好动画片(提名)

  第3届豆瓣电影鑫像奖(2013)
  鑫豆单元 最好动画长片(提名)
  鑫豆单元 最好歌曲(提名)
  1. Video
  2. ID                                       : 1
  3. Format                                   : HEVC
  4. Format/Info                              : High Efficiency Video Coding
  5. Format profile                           : Main <a href="/cdn-cgi/l/email-protection" class="__cf_email__" data-cfemail="aa9b9aeae69f849b">[email protected]</a>@High
  6. Codec ID                                 : V_MPEGH/ISO/HEVC
  7. Duration                                 : 1 h 33 min
  8. Bit rate                                 : 16.2 Mb/s
  9. Width                                    : 3 840 pixels
  10. Height                                   : 1 606 pixels
  11. Display aspect ratio                     : 2.40:1
  12. Frame rate mode                          : Constant
  13. Frame rate                               : 23.976 (24000/1001) FPS
  14. Color space                              : YUV
  15. Chroma subsampling                       : 4:2:0
  16. Bit depth                                : 10 bits
  17. Bits/(Pixel*Frame)                       : 0.110
  18. Stream size                              : 10.6 GiB (56%)
  19. Title                                    : Brave.2012.2160p.BluRay.x265.10bit.SDR.DTS-HD.MA.TrueHD.7.1.Atmos-SWTYBLZ
  20. Writing library                          : x265 3.0ed72af837053:[Windows][GCC 8.2.0][64 bit] 10bit
  21. Encoding settings                        : cpuid=1111039 / frame-threads=16 / numa-pools=24,24,24,24 / wpp / no-pmode / no-pme / no-psnr / no-ssim / log-level=2 / input-csp=1 / input-res=3840x1606 / interlace=0 / total-frames=134602 / level-idc=51 / high-tier=1 / uhd-bd=0 / ref=3 / no-allow-non-conformance / repeat-headers / annexb / aud / hrd / info / hash=0 / no-temporal-layers / no-open-gop / min-keyint=1 / keyint=24 / gop-lookahead=0 / bframes=6 / b-adapt=2 / b-pyramid / bframe-bias=0 / rc-lookahead=25 / lookahead-slices=4 / scenecut=40 / radl=0 / no-splice / no-intra-refresh / ctu=64 / min-cu-size=8 / no-rect / no-amp / max-tu-size=32 / tu-inter-depth=1 / tu-intra-depth=1 / limit-tu=0 / rdoq-level=0 / dynamic-rd=0.00 / no-ssim-rd / signhide / no-tskip / nr-intra=0 / nr-inter=0 / no-constrained-intra / strong-intra-smoothing / max-merge=2 / limit-refs=3 / no-limit-modes / me=1 / subme=2 / merange=57 / temporal-mvp / weightp / no-weightb / no-analyze-src-pics / deblock=1:1 / no-sao / no-sao-non-deblock / rd=3 / no-early-skip / rskip / no-fast-intra / no-tskip-fast / no-cu-lossless / no-b-intra / no-splitrd-skip / rdpenalty=0 / psy-rd=0.40 / psy-rdoq=0.00 / no-rd-refine / no-lossless / cbqpoffs=0 / crqpoffs=0 / rc=crf / crf=14.0 / qcomp=0.60 / qpstep=4 / stats-write=0 / stats-read=0 / vbv-maxrate=160000 / vbv-bufsize=160000 / vbv-init=0.9 / crf-max=0.0 / crf-min=0.0 / ipratio=1.40 / pbratio=1.30 / aq-mode=1 / aq-strength=0.40 / cutree / zone-count=0 / no-strict-cbr / qg-size=32 / no-rc-grain / qpmax=69 / qpmin=0 / no-const-vbv / sar=1 / overscan=0 / videoformat=5 / range=0 / colorprim=2 / transfer=2 / colormatrix=2 / chromaloc=0 / display-window=0 / max-cll=0,0 / min-luma=0 / max-luma=1023 / log2-max-poc-lsb=8 / vui-timing-info / vui-hrd-info / slices=1 / opt-qp-pps / opt-ref-list-length-pps / no-multi-pass-opt-rps / scenecut-bias=0.05 / no-opt-cu-delta-qp / no-aq-motion / no-hdr / no-hdr-opt / no-dhdr10-opt / no-idr-recovery-sei / analysis-reuse-level=5 / scale-factor=0 / refine-intra=0 / refine-inter=0 / refine-mv=0 / refine-ctu-distortion=0 / no-limit-sao / ctu-info=0 / no-lowpass-dct / refine-analysis-type=0 / copy-pic=1 / max-ausize-factor=1.0 / no-dynamic-refine / no-single-sei / no-hevc-aq / qp-adaptation-range=1.00
  22. Default                                  : Yes
  23. Forced                                   : No

  24. Audio #1
  25. ID                                       : 2
  26. Format                                   : MLP FBA 16-ch
  27. Format/Info                              : Meridian Lossless Packing FBA with 16-channel presentation
  28. Commercial name                          : Dolby TrueHD with Dolby Atmos
  29. Codec ID                                 : A_TRUEHD
  30. Duration                                 : 1 h 33 min
  31. Bit rate mode                            : Variable
  32. Bit rate                                 : 7 827 kb/s
  33. Maximum bit rate                         : 10.9 Mb/s
  34. Channel(s)                               : 8 channels
  35. Channel layout                           : L R C LFE Ls Rs Lb Rb
  36. Sampling rate                            : 48.0 kHz
  37. Frame rate                               : 1 200.000 FPS (40 SPF)
  38. Compression mode                         : Lossless
  39. Stream size                              : 5.12 GiB (27%)
  40. Title                                    : Brave.2012.2160p.BluRay.x265.10bit.SDR.DTS-HD.MA.TrueHD.7.1.Atmos-SWTYBLZ
  41. Language                                 : English
  42. Default                                  : Yes
  43. Forced                                   : No
  44. Number of dynamic objects                : 13
  45. Bed channel count                        : 1 channel
  46. Bed channel configuration                : LFE

  47. Audio #2
  48. ID                                       : 3
  49. Format                                   : DTS XLL
  50. Format/Info                              : Digital Theater Systems
  51. Commercial name                          : DTS-HD Master Audio
  52. Codec ID                                 : A_DTS
  53. Duration                                 : 1 h 33 min
  54. Bit rate mode                            : Variable
  55. Bit rate                                 : 4 050 kb/s
  56. Channel(s)                               : 8 channels
  57. Channel layout                           : C L R LFE Lb Rb Lss Rss
  58. Sampling rate                            : 48.0 kHz
  59. Frame rate                               : 93.750 FPS (512 SPF)
  60. Bit depth                                : 24 bits
  61. Compression mode                         : Lossless
  62. Stream size                              : 2.65 GiB (14%)
  63. Title                                    : Brave.2012.2160p.BluRay.x265.10bit.SDR.DTS-HD.MA.TrueHD.7.1.Atmos-SWTYBLZ
  64. Language                                 : English
  65. Default                                  : No
  66. Forced                                   : No

  67. Audio #3
  68. ID                                       : 4
  69. Format                                   : AC-3
  70. Format/Info                              : Audio Coding 3
  71. Commercial name                          : Dolby Digital
  72. Codec ID                                 : A_AC3
  73. Duration                                 : 1 h 33 min
  74. Bit rate mode                            : Constant
  75. Bit rate                                 : 640 kb/s
  76. Channel(s)                               : 6 channels
  77. Channel layout                           : L R C LFE Ls Rs
  78. Sampling rate                            : 48.0 kHz
  79. Frame rate                               : 31.250 FPS (1536 SPF)
  80. Bit depth                                : 16 bits
  81. Compression mode                         : Lossy
  82. Stream size                              : 428 MiB (2%)
  83. Title                                    : Brave.2012.2160p.BluRay.x265.10bit.SDR.DTS-HD.MA.TrueHD.7.1.Atmos-SWTYBLZ
  84. Language                                 : English
  85. Service kind                             : Complete Main
  86. Default                                  : No
  87. Forced                                   : No

  88. Text #1
  89. ID                                       : 5
  90. Format                                   : UTF-8
  91. Codec ID                                 : S_TEXT/UTF8
  92. Codec ID/Info                            : UTF-8 Plain Text
  93. Duration                                 : 1 h 31 min
  94. Bit rate                                 : 42 b/s
  95. Count of elements                        : 1015
  96. Stream size                              : 28.3 KiB (0%)
  97. Title                                    : English-SRT
  98. Language                                 : English
  99. Default                                  : Yes
  100. Forced                                   : No

  101. Text #2
  102. ID                                       : 6
  103. Format                                   : PGS
  104. Muxing mode                              : zlib
  105. Codec ID                                 : S_HDMV/PGS
  106. Codec ID/Info                            : Picture based subtitle format used on BDs/HD-DVDs
  107. Duration                                 : 1 h 32 min
  108. Bit rate                                 : 36.3 kb/s
  109. Count of elements                        : 2802
  110. Stream size                              : 24.0 MiB (0%)
  111. Title                                    : English-PGS
  112. Language                                 : English
  113. Default                                  : No
  114. Forced                                   : No

  115. Text #3
  116. ID                                       : 7
  117. Format                                   : PGS
  118. Muxing mode                              : zlib
  119. Codec ID                                 : S_HDMV/PGS
  120. Codec ID/Info                            : Picture based subtitle format used on BDs/HD-DVDs
  121. Duration                                 : 1 h 32 min
  122. Bit rate                                 : 24.8 kb/s
  123. Count of elements                        : 1772
  124. Stream size                              : 16.4 MiB (0%)
  125. Title                                    : French-PGS
  126. Language                                 : French
  127. Default                                  : No
  128. Forced                                   : No

  129. Text #4
  130. ID                                       : 8
  131. Format                                   : PGS
  132. Muxing mode                              : zlib
  133. Codec ID                                 : S_HDMV/PGS
  134. Codec ID/Info                            : Picture based subtitle format used on BDs/HD-DVDs
  135. Duration                                 : 1 h 32 min
  136. Bit rate                                 : 22.5 kb/s
  137. Count of elements                        : 1472
  138. Stream size                              : 14.8 MiB (0%)
  139. Title                                    : Spanish-PGS
  140. Language                                 : Spanish
  141. Default                                  : No
  142. Forced                                   : No

  143. Menu
  144. 00:00:00.000                             : en:Chapter 01
  145. 00:04:23.346                             : en:Chapter 02
  146. 00:09:18.266                             : en:Chapter 03
  147. 00:12:54.190                             : en:Chapter 04
  148. 00:14:01.090                             : en:Chapter 05
  149. 00:16:10.970                             : en:Chapter 06
  150. 00:17:37.514                             : en:Chapter 07
  151. 00:22:56.625                             : en:Chapter 08
  152. 00:27:23.725                             : en:Chapter 09
  153. 00:28:52.063                             : en:Chapter 10
  154. 00:30:55.687                             : en:Chapter 11
  155. 00:34:00.955                             : en:Chapter 12
  156. 00:36:04.328                             : en:Chapter 13
  157. 00:39:07.762                             : en:Chapter 14
  158. 00:41:55.930                             : en:Chapter 15
  159. 00:43:28.564                             : en:Chapter 16
  160. 00:47:06.573                             : en:Chapter 17
  161. 00:48:23.150                             : en:Chapter 18
  162. 00:51:04.895                             : en:Chapter 19
  163. 00:52:34.693                             : en:Chapter 20
  164. 00:54:01.863                             : en:Chapter 21
  165. 00:54:46.491                             : en:Chapter 22
  166. 00:57:31.698                             : en:Chapter 23
  167. 00:59:00.995                             : en:Chapter 24
  168. 01:02:49.015                             : en:Chapter 25
  169. 01:03:28.221                             : en:Chapter 26
  170. 01:09:58.319                             : en:Chapter 27
  171. 01:10:38.108                             : en:Chapter 28
  172. 01:12:36.352                             : en:Chapter 29
  173. 01:13:40.332                             : en:Chapter 30
  174. 01:15:36.323                             : en:Chapter 31
  175. 01:16:59.740                             : en:Chapter 32
  176. 01:17:37.736                             : en:Chapter 33
  177. 01:19:48.950                             : en:Chapter 34
  178. 01:23:17.617                             : en:Chapter 35
  179. 01:24:39.324                             : en:Chapter 36
  180. 01:32:53.401                             : en:Chapter 37
复制代码

勇敢传闻 Brave.2012.2160p.BluRay.x265.10bit.SDR.DTS-HD.MA.TrueHD.7.1.Atmos-SWTYBLZ 18.95GB-2.png 勇敢传闻 Brave.2012.2160p.BluRay.x265.10bit.SDR.DTS-HD.MA.TrueHD.7.1.Atmos-SWTYBLZ 18.95GB-3.png 勇敢传闻 Brave.2012.2160p.BluRay.x265.10bit.SDR.DTS-HD.MA.TrueHD.7.1.Atmos-SWTYBLZ 18.95GB-4.png 勇敢传闻 Brave.2012.2160p.BluRay.x265.10bit.SDR.DTS-HD.MA.TrueHD.7.1.Atmos-SWTYBLZ 18.95GB-5.png 勇敢传闻 Brave.2012.2160p.BluRay.x265.10bit.SDR.DTS-HD.MA.TrueHD.7.1.Atmos-SWTYBLZ 18.95GB-6.png






本帖隐藏的下载地址需要VIP会员才可阅读,您需要升级才可阅读,点击这里升级VIP

VIP会员免费任意下载本站所有资源!---点击开通
回复

使用道具 举报

懒得打字嘛,点击右侧快捷回复 【右侧内容,后台自定义】
您需要登录后才可以回帖 登录 | 立即注册

本版积分规则

QQ|Archiver|手机版|小黑屋| 中国高清网 |网站地图

GMT+8, 2019-9-20 05:09 , Processed in 0.433397 second(s), 39 queries .

Powered by HDchina X3.4

Copyright 2017-2019©HDchina.All right reserved

返回顶部 联系我们