查看: 19|回复: 0

[REMUX.HEVC] 美食总动员/五星级大鼠 Ratatouille.2007.2160p.BluRay.REMUX.HEVC.TrueHD.7.1.Atmos-FGT 43.52GB

[复制链接]

 成长值: 2560

级别:资源管理组

注册时间
2017-10-20
最后登录
2019-9-19
听众
1
收听
0
主题
82921
蓝光币
49296 枚
贡献
7249 点
发表于 2019-9-11 14:10:22 | 显示全部楼层 |阅读模式
美食总带动/五星级大鼠 Ratatouille.2007.2160p.BluRay.REMUX.HEVC.TrueHD.7.1.Atmos-FGT 43.52GB-1.png

译  名 美食总带动 / 五星级大鼠(港) / 小鼠大厨 / 料理鼠王(台) / 蔬菜杂烩
片  名 Ratatouille
年  代 2007
产  地 美国
类  别 笑剧 / 动画 / 奇异
语  言 英语 / 法语
上映日期 2007-06-29(美国) / 2007-10-19(中国大陆)
IMDb评分  8.0/10 from 589266 users
IMDb链接  http://www.imdb.com/title/tt0382932
豆瓣评分 8.4/10 from 236163 users
豆瓣链接 https://movie.douban.com/subject/1793491/
片  长 111 分钟
导  演 Brad Bird / Jan Pinkava
编  剧 Brad Bird / Jan Pinkava
主  演 Patton Oswalt
       Peter O'Toole
       Brad Garrett
       Ian Holm
       Lou Romano
       Brian Dennehy
       Peter Sohn
       Janeane Garofalo


标  签 动画 | 美国 | 笑剧 | pixar | 动画片 | 美国电影 | 2007 | 皮克斯

简  介  

  小老鼠雷米在嗅觉方面有着无与伦比的天赋,不想过与渣滓堆为伴的生活,心胸成为五星大厨的胡想。
  一个偶然的机遇,他熟悉了古斯特餐厅的学徒林奎尼,这个倒霉的学徒素性害臊,在厨艺上更是没有什么天赋,而且遭到餐厅大厨的排挤,行将被解雇。这一人一鼠结成了奇异的同盟:雷米奉献自己极富缔造力的大脑。操纵林奎尼前台“表演”。
  在雷米的帮助下,林奎尼不单成为新的“天赋厨师”,获得了美男同事的恋爱,还挫败了大厨的诡计,成为古斯特餐厅的正当继续人。突如起来的成功让林奎尼有些手足无措,想摆脱自己的傀儡身份,把雷米赶出了厨房。
  古斯特餐厅的成功,引发了刻薄的美食批评家科隆的留意,预备一尝林奎尼的技术,重新为餐厅评定星级;而不甘失利的前大厨,捋臂张拳,想要找到林奎尼一夜成名的奥秘。落空了雷米,林奎尼该若何面临这些题目……

获奖情况  

  第80届奥斯卡金像奖(2008)
  最好原创剧本(提名) 简·皮克瓦 / 布拉德·伯德
  最好动画长片 布拉德·伯德
  最好混音(提名) 兰迪·汤姆 / Doc Kane / 迈克尔·斯曼外科
  最好音效剪辑(提名) 兰迪·汤姆 / 迈克尔·席维斯
  最好原创配乐(提名) 迈克·吉亚奇诺

  第61届英国电影学院奖(2008)
  电影奖 最好动画片 布拉德·伯德

  第35届动画安妮奖(2008)
  最好动画长片
  最好导演 布拉德·伯德
  最好编剧 布拉德·伯德
  最好配音 伊安·霍姆
  最好配音(提名) 詹妮安·加罗法洛 / 帕顿·奥斯瓦尔特
  最好配乐 迈克·吉亚奇诺
  最好分镜 泰德·马托特
  最好艺术指导 哈雷·杰斯普
  最好动画脚色(提名) Michal Makarewicz
  最好脚色设想 Carter Goodrich
  最好动画结果(提名) Gary Bruins / Jon Reisch

  第8届美国电影学会奖(2007)
  年度佳片
  1. Video
  2. ID                                       : 1
  3. Format                                   : HEVC
  4. Format/Info                              : High Efficiency Video Coding
  5. Format profile                           : Main <a href="/cdn-cgi/l/email-protection" class="__cf_email__" data-cfemail="774647373b425946">[email protected]</a>@High
  6. HDR format                               : SMPTE ST 2086, HDR10 compatible
  7. Codec ID                                 : V_MPEGH/ISO/HEVC
  8. Duration                                 : 1 h 51 min
  9. Bit rate                                 : 43.4 Mb/s
  10. Width                                    : 3 840 pixels
  11. Height                                   : 2 160 pixels
  12. Display aspect ratio                     : 16:9
  13. Frame rate mode                          : Constant
  14. Frame rate                               : 23.976 (24000/1001) FPS
  15. Color space                              : YUV
  16. Chroma subsampling                       : 4:2:0 (Type 2)
  17. Bit depth                                : 10 bits
  18. Bits/(Pixel*Frame)                       : 0.218
  19. Stream size                              : 33.7 GiB (77%)
  20. Title                                    : Ratatouille.2007.2160p.BluRay.REMUX.HEVC.TrueHD.7.1.Atmos-FGT
  21. Writing library                          : ATEME Titan File 3.9.0 (4.9.0.0)        
  22. Language                                 : English
  23. Default                                  : No
  24. Forced                                   : No
  25. Color range                              : Limited
  26. Color primaries                          : BT.2020
  27. Transfer characteristics                 : PQ
  28. Matrix coefficients                      : BT.2020 non-constant
  29. Mastering display color primaries        : Display P3
  30. Mastering display luminance              : min: 0.0000 cd/m2, max: 1000 cd/m2

  31. Audio #1
  32. ID                                       : 2
  33. Format                                   : MLP FBA 16-ch
  34. Format/Info                              : Meridian Lossless Packing FBA with 16-channel presentation
  35. Commercial name                          : Dolby TrueHD with Dolby Atmos
  36. Codec ID                                 : A_TRUEHD
  37. Duration                                 : 1 h 51 min
  38. Bit rate mode                            : Variable
  39. Bit rate                                 : 7 350 kb/s
  40. Maximum bit rate                         : 6 972 kb/s
  41. Channel(s)                               : 8 channels
  42. Channel layout                           : L R C LFE Ls Rs Lb Rb
  43. Sampling rate                            : 48.0 kHz
  44. Frame rate                               : 1 200.000 FPS (40 SPF)
  45. Compression mode                         : Lossless
  46. Stream size                              : 5.70 GiB (13%)
  47. Title                                    : Ratatouille.2007.2160p.BluRay.REMUX.HEVC.TrueHD.7.1.Atmos-FGT
  48. Language                                 : English
  49. Default                                  : Yes
  50. Forced                                   : No
  51. Number of dynamic objects                : 13
  52. Bed channel count                        : 1 channel
  53. Bed channel configuration                : LFE

  54. Audio #2
  55. ID                                       : 3
  56. Format                                   : AC-3
  57. Format/Info                              : Audio Coding 3
  58. Commercial name                          : Dolby Digital
  59. Codec ID                                 : A_AC3
  60. Duration                                 : 1 h 51 min
  61. Bit rate mode                            : Constant
  62. Bit rate                                 : 640 kb/s
  63. Channel(s)                               : 6 channels
  64. Channel layout                           : L R C LFE Ls Rs
  65. Sampling rate                            : 48.0 kHz
  66. Frame rate                               : 31.250 FPS (1536 SPF)
  67. Bit depth                                : 16 bits
  68. Compression mode                         : Lossy
  69. Stream size                              : 509 MiB (1%)
  70. Title                                    : Ratatouille.2007.2160p.BluRay.REMUX.HEVC.TrueHD.7.1.Atmos-FGT
  71. Language                                 : English
  72. Service kind                             : Complete Main
  73. Default                                  : No
  74. Forced                                   : No

  75. Audio #3
  76. ID                                       : 4
  77. Format                                   : DTS ES XBR
  78. Format/Info                              : Digital Theater Systems
  79. Commercial name                          : DTS-HD High Resolution Audio
  80. Codec ID                                 : A_DTS
  81. Duration                                 : 1 h 51 min
  82. Bit rate mode                            : Constant
  83. Bit rate                                 : 2 046 kb/s
  84. Channel(s)                               : 6 channels
  85. Channel(s)_Original                      : 7 channels
  86. Channel layout                           : C L R Ls Rs LFE Cb
  87. Sampling rate                            : 48.0 kHz
  88. Frame rate                               : 93.750 FPS (512 SPF)
  89. Bit depth                                : 24 bits
  90. Compression mode                         : Lossy
  91. Stream size                              : 1.59 GiB (4%)
  92. Title                                    : Ratatouille.2007.2160p.BluRay.REMUX.HEVC.TrueHD.7.1.Atmos-FGT
  93. Language                                 : English
  94. Default                                  : No
  95. Forced                                   : No

  96. Audio #4
  97. ID                                       : 5
  98. Format                                   : AC-3
  99. Format/Info                              : Audio Coding 3
  100. Commercial name                          : Dolby Digital
  101. Codec ID                                 : A_AC3
  102. Duration                                 : 1 h 51 min
  103. Bit rate mode                            : Constant
  104. Bit rate                                 : 640 kb/s
  105. Channel(s)                               : 6 channels
  106. Channel layout                           : L R C LFE Ls Rs
  107. Sampling rate                            : 48.0 kHz
  108. Frame rate                               : 31.250 FPS (1536 SPF)
  109. Bit depth                                : 16 bits
  110. Compression mode                         : Lossy
  111. Delay relative to video                  : 834 ms
  112. Stream size                              : 508 MiB (1%)
  113. Title                                    : Ratatouille.2007.2160p.BluRay.REMUX.HEVC.TrueHD.7.1.Atmos-FGT
  114. Language                                 : English
  115. Service kind                             : Complete Main
  116. Default                                  : No
  117. Forced                                   : No

  118. Audio #5
  119. ID                                       : 6
  120. Format                                   : AC-3
  121. Format/Info                              : Audio Coding 3
  122. Commercial name                          : Dolby Digital
  123. Codec ID                                 : A_AC3
  124. Duration                                 : 1 h 51 min
  125. Bit rate mode                            : Constant
  126. Bit rate                                 : 320 kb/s
  127. Channel(s)                               : 2 channels
  128. Channel layout                           : L R
  129. Sampling rate                            : 48.0 kHz
  130. Frame rate                               : 31.250 FPS (1536 SPF)
  131. Bit depth                                : 16 bits
  132. Compression mode                         : Lossy
  133. Stream size                              : 254 MiB (1%)
  134. Title                                    : Ratatouille.2007.2160p.BluRay.REMUX.HEVC.TrueHD.7.1.Atmos-FGT
  135. Language                                 : English
  136. Service kind                             : Complete Main
  137. Default                                  : No
  138. Forced                                   : No

  139. Audio #6
  140. ID                                       : 7
  141. Format                                   : AC-3
  142. Format/Info                              : Audio Coding 3
  143. Commercial name                          : Dolby Digital
  144. Codec ID                                 : A_AC3
  145. Duration                                 : 1 h 51 min
  146. Bit rate mode                            : Constant
  147. Bit rate                                 : 320 kb/s
  148. Channel(s)                               : 2 channels
  149. Channel layout                           : L R
  150. Sampling rate                            : 48.0 kHz
  151. Frame rate                               : 31.250 FPS (1536 SPF)
  152. Bit depth                                : 16 bits
  153. Compression mode                         : Lossy
  154. Stream size                              : 254 MiB (1%)
  155. Title                                    : Ratatouille.2007.2160p.BluRay.REMUX.HEVC.TrueHD.7.1.Atmos-FGT
  156. Language                                 : English
  157. Service kind                             : Complete Main
  158. Default                                  : No
  159. Forced                                   : No

  160. Audio #7
  161. ID                                       : 8
  162. Format                                   : AC-3
  163. Format/Info                              : Audio Coding 3
  164. Commercial name                          : Dolby Digital
  165. Codec ID                                 : A_AC3
  166. Duration                                 : 1 h 51 min
  167. Bit rate mode                            : Constant
  168. Bit rate                                 : 640 kb/s
  169. Channel(s)                               : 6 channels
  170. Channel layout                           : L R C LFE Ls Rs
  171. Sampling rate                            : 48.0 kHz
  172. Frame rate                               : 31.250 FPS (1536 SPF)
  173. Bit depth                                : 16 bits
  174. Compression mode                         : Lossy
  175. Stream size                              : 509 MiB (1%)
  176. Title                                    : Ratatouille.2007.2160p.BluRay.REMUX.HEVC.TrueHD.7.1.Atmos-FGT
  177. Language                                 : French
  178. Service kind                             : Complete Main
  179. Default                                  : No
  180. Forced                                   : No

  181. Audio #8
  182. ID                                       : 9
  183. Format                                   : AC-3
  184. Format/Info                              : Audio Coding 3
  185. Commercial name                          : Dolby Digital
  186. Codec ID                                 : A_AC3
  187. Duration                                 : 1 h 51 min
  188. Bit rate mode                            : Constant
  189. Bit rate                                 : 640 kb/s
  190. Channel(s)                               : 6 channels
  191. Channel layout                           : L R C LFE Ls Rs
  192. Sampling rate                            : 48.0 kHz
  193. Frame rate                               : 31.250 FPS (1536 SPF)
  194. Bit depth                                : 16 bits
  195. Compression mode                         : Lossy
  196. Stream size                              : 509 MiB (1%)
  197. Title                                    : Ratatouille.2007.2160p.BluRay.REMUX.HEVC.TrueHD.7.1.Atmos-FGT
  198. Language                                 : Spanish
  199. Service kind                             : Complete Main
  200. Default                                  : No
  201. Forced                                   : No

  202. Text #1
  203. ID                                       : 10
  204. Format                                   : UTF-8
  205. Codec ID                                 : S_TEXT/UTF8
  206. Codec ID/Info                            : UTF-8 Plain Text
  207. Duration                                 : 1 h 42 min
  208. Bit rate                                 : 64 b/s
  209. Count of elements                        : 1328
  210. Stream size                              : 48.3 KiB (0%)
  211. Title                                    : English-SRT
  212. Language                                 : English
  213. Default                                  : Yes
  214. Forced                                   : No

  215. Text #2
  216. ID                                       : 11
  217. Format                                   : PGS
  218. Muxing mode                              : zlib
  219. Codec ID                                 : S_HDMV/PGS
  220. Codec ID/Info                            : Picture based subtitle format used on BDs/HD-DVDs
  221. Duration                                 : 1 h 42 min
  222. Bit rate                                 : 45.2 kb/s
  223. Count of elements                        : 3180
  224. Stream size                              : 33.0 MiB (0%)
  225. Title                                    : English-PGS
  226. Language                                 : English
  227. Default                                  : No
  228. Forced                                   : No

  229. Text #3
  230. ID                                       : 12
  231. Format                                   : PGS
  232. Muxing mode                              : zlib
  233. Codec ID                                 : S_HDMV/PGS
  234. Codec ID/Info                            : Picture based subtitle format used on BDs/HD-DVDs
  235. Duration                                 : 1 h 42 min
  236. Bit rate                                 : 39.8 kb/s
  237. Count of elements                        : 2600
  238. Stream size                              : 29.0 MiB (0%)
  239. Title                                    : French-PGS
  240. Language                                 : French
  241. Default                                  : No
  242. Forced                                   : No

  243. Text #4
  244. ID                                       : 13
  245. Format                                   : PGS
  246. Muxing mode                              : zlib
  247. Codec ID                                 : S_HDMV/PGS
  248. Codec ID/Info                            : Picture based subtitle format used on BDs/HD-DVDs
  249. Duration                                 : 1 h 42 min
  250. Bit rate                                 : 39.2 kb/s
  251. Count of elements                        : 2604
  252. Stream size                              : 28.6 MiB (0%)
  253. Title                                    : Spanish-PGS
  254. Language                                 : Spanish
  255. Default                                  : No
  256. Forced                                   : No

  257. Menu
  258. 00:00:00.000                             : en:Chapter 01
  259. 00:01:16.701                             : en:Chapter 02
  260. 00:06:30.223                             : en:Chapter 03
  261. 00:09:23.729                             : en:Chapter 04
  262. 00:10:58.532                             : en:Chapter 05
  263. 00:13:31.519                             : en:Chapter 06
  264. 00:17:40.851                             : en:Chapter 07
  265. 00:19:38.343                             : en:Chapter 08
  266. 00:24:49.154                             : en:Chapter 09
  267. 00:28:56.067                             : en:Chapter 10
  268. 00:33:05.775                             : en:Chapter 11
  269. 00:38:14.250                             : en:Chapter 12
  270. 00:40:33.722                             : en:Chapter 13
  271. 00:44:12.066                             : en:Chapter 14
  272. 00:47:00.108                             : en:Chapter 15
  273. 00:51:28.502                             : en:Chapter 16
  274. 00:57:03.002                             : en:Chapter 17
  275. 00:59:33.152                             : en:Chapter 18
  276. 01:00:54.359                             : en:Chapter 19
  277. 01:07:20.578                             : en:Chapter 20
  278. 01:11:26.490                             : en:Chapter 21
  279. 01:15:29.066                             : en:Chapter 22
  280. 01:19:25.927                             : en:Chapter 23
  281. 01:23:30.964                             : en:Chapter 24
  282. 01:25:35.296                             : en:Chapter 25
  283. 01:28:19.168                             : en:Chapter 26
  284. 01:32:39.595                             : en:Chapter 27
  285. 01:35:41.944                             : en:Chapter 28
  286. 01:38:50.341                             : en:Chapter 29
  287. 01:40:55.507                             : en:Chapter 30
  288. 01:42:59.798                             : en:Chapter 31
复制代码

美食总带动/五星级大鼠 Ratatouille.2007.2160p.BluRay.REMUX.HEVC.TrueHD.7.1.Atmos-FGT 43.52GB-2.png 美食总带动/五星级大鼠 Ratatouille.2007.2160p.BluRay.REMUX.HEVC.TrueHD.7.1.Atmos-FGT 43.52GB-3.png 美食总带动/五星级大鼠 Ratatouille.2007.2160p.BluRay.REMUX.HEVC.TrueHD.7.1.Atmos-FGT 43.52GB-4.png






本帖隐藏的下载地址需要VIP会员才可阅读,您需要升级才可阅读,点击这里升级VIP

VIP会员免费任意下载本站所有资源!---点击开通
回复

使用道具 举报

懒得打字嘛,点击右侧快捷回复 【右侧内容,后台自定义】
您需要登录后才可以回帖 登录 | 立即注册

本版积分规则

QQ|Archiver|手机版|小黑屋| 中国高清网 |网站地图

GMT+8, 2019-9-20 05:25 , Processed in 0.480733 second(s), 39 queries .

Powered by HDchina X3.4

Copyright 2017-2019©HDchina.All right reserved

返回顶部 联系我们