查看: 179|回复: 2

[动作片] 精英出击/总司令 General.Commander.2019.720p.BluRay.x264-GUACAMOLE 3.28GB

[复制链接]

 成长值: 6410

级别:资源管理组

注册时间
2017-10-20
最后登录
2020-8-7
听众
1
收听
0
主题
100960
蓝光币
179138 枚
贡献
21715 点
发表于 2019-9-11 14:07:46 | 显示全部楼层 |阅读模式
精英反击/总司令 General.Commander.2019.720p.BluRay.x264-GUACAMOLE 3.28GB-1.png 7 k* V9 T4 ~$ `% E3 n2 D

8 N; _$ A! G$ m4 o# p# l* Q译  名 精英反击 / 总司令
. w7 a0 ?7 N8 x4 C2 D片  名 General Commander
. Q6 t+ H8 d. b' Z年  代 2019
( W  o; W% l1 S, @. ?$ X9 Z产  地 英国 / 匈牙利 / 菲律宾
* {. g; E8 p" ?* D7 ~" X5 J) T类  别 行动 / 犯罪4 o7 o) O0 ~2 |
语  言 英语
! u. H$ M$ C; J8 O- k$ O上映日期 2019-05-28(美国)7 N" P; D* A" K
IMDb评分  3.9/10 from 269 users
% M$ q* {8 X6 v$ T+ U. rIMDb链接  http://www.imdb.com/title/tt70435348 x$ P. L2 N3 q7 ]0 I% u" U
豆瓣评分 0/10 from 0 users; _& I* s# a6 O% _; t; O2 z
豆瓣链接 https://movie.douban.com/subject/27611392/; |0 G7 a/ G0 k7 x+ m0 O
片  长 81分钟
8 Y) D; S' h" R% Z导  演 Philippe Martinez
4 Q& e, G$ z+ W. `) _8 e编  剧 Philippe Martinez / Lisa Gabriel / Megan Brown3 L2 E1 a% o8 E, b0 N
主  演 史蒂文·席格 Steven Seagal
" a6 e+ X# d$ Z2 C       索尼亚·考琳 Sonia Couling
! R  i% z% V$ W+ j* N  T" r0 a4 ?; O       Bryon Gibson
& y  o; p1 N* C' [4 o       Mica Javier
* `4 U* m, V( p5 Q- {/ ~, \! [       Soraya Torrens
4 F, f1 `5 d5 M2 V) ~: B       Jai Day/ L$ K* W! j1 Y2 K
       Megan Brown
6 w/ G3 \, J: Q. K; q. t* G       Chris Pasone8 m8 T- e3 i9 O3 L& C
       Billy Ray
, B" `$ H) x' l4 A4 N0 J  V! a- V       罗恩·斯穆安伯格 Ron Smoorenburg
1 c, t, `4 i8 u- U$ Y# e1 X       Valerio Zechini& h6 n' v; J* s6 C
, Z# T" l8 }. y+ ?7 b. ]8 d2 i3 c
5 ?' W& m0 e- X* F: S; _
标  签 2018 | 英国 | 电视剧 | 犯罪 | 未看 | 行动 | 剧情
, k: M3 R+ }: S+ q" A
2 T- D! s, w4 k! T简  介  
$ C) n( _& j7 J! s" v3 t4 p' f8 _3 P
- Y  k. _: ~! Y) U9 n5 e6 t  本剧报告了GRS奸细杰克?亚历山大(史蒂文?席格 Steven Seagal 饰)在一位香港富翁的帮助下,率领着他年轻的队员们冲击最为邪恶的罪犯的故事。
  d( j+ G, y; L
  1. Video; A9 ~) Y+ Q! b: N
  2. ID                                       : 14 N; `% V  k! a* {8 k
  3. Format                                   : AVC5 t" o' i0 }1 C4 {& h4 B
  4. Format/Info                              : Advanced Video Codec
    & U' R0 c" ~) C; T
  5. Format profile                           : <a href="/cdn-cgi/l/email-protection" class="__cf_email__" data-cfemail="0941606e6149453d2738">[email protected]</a>
    # ~' q% `' S) v6 ^8 i
  6. Format settings                          : CABAC / 5 Ref Frames5 F6 K  d1 X4 i7 K6 z2 V
  7. Format settings, CABAC                   : Yes) [: N  Y3 Q* n& b7 x1 G) \& o
  8. Format settings, Reference frames        : 5 frames& x- ^9 f  Y7 }+ E
  9. Codec ID                                 : V_MPEG4/ISO/AVC
    ( d' u- V* L1 p1 |4 Q6 H8 K$ m
  10. Duration                                 : 1 h 25 min
    1 k3 E' r. W4 D; L% F3 `5 `
  11. Bit rate                                 : 4 824 kb/s
    " a" H8 U' L  g
  12. Width                                    : 1 280 pixels
    1 m  v! o+ J) E3 G# u
  13. Height                                   : 536 pixels
    9 [* E$ @! U7 D! t
  14. Display aspect ratio                     : 2.40:1
      s8 O  d# q  Y7 y+ l! H$ ^
  15. Frame rate mode                          : Constant& z/ [! I: W4 \2 m) }" T; j
  16. Frame rate                               : 23.976 (24000/1001) FPS
    # k) u$ o8 d  n" Y
  17. Color space                              : YUV
    ) G( F9 D- V& ?) V  k
  18. Chroma subsampling                       : 4:2:04 z6 f  Y: a0 Q5 p! ?4 h: ~
  19. Bit depth                                : 8 bits0 S* e' I! R* Q8 u- Z$ U& Y
  20. Scan type                                : Progressive& I; n( @) y; n4 c4 A7 m
  21. Bits/(Pixel*Frame)                       : 0.293
    * i1 |8 d- ?+ W) ~+ s5 v
  22. Stream size                              : 2.89 GiB (88%)7 m. ~) @! T& P2 @% @: F
  23. Writing library                          : x264 core 157 r2969 d4099dd+ S/ ?2 [$ b' G! ]9 k
  24. Encoding settings                        : cabac=1 / ref=5 / deblock=1:0:0 / analyse=0x3:0x113 / me=umh / subme=8 / psy=1 / psy_rd=1.00:0.00 / mixed_ref=1 / me_range=16 / chroma_me=1 / trellis=2 / 8x8dct=1 / cqm=0 / deadzone=21,11 / fast_pskip=0 / chroma_qp_offset=-2 / threads=17 / lookahead_threads=2 / sliced_threads=0 / nr=0 / decimate=1 / interlaced=0 / bluray_compat=0 / constrained_intra=0 / bframes=3 / b_pyramid=2 / b_adapt=1 / b_bias=0 / direct=1 / weightb=1 / open_gop=0 / weightp=2 / keyint=250 / keyint_min=23 / scenecut=40 / intra_refresh=0 / rc_lookahead=50 / rc=2pass / mbtree=1 / bitrate=4824 / ratetol=1.0 / qcomp=0.60 / qpmin=0 / qpmax=69 / qpstep=4 / cplxblur=20.0 / qblur=0.5 / ip_ratio=1.40 / aq=1:1.00( h" p8 x) }. n. t( u
  25. Default                                  : Yes
    ' ]2 ^1 G; j2 \" a7 O0 I
  26. Forced                                   : No* Z+ Y# C/ {, I$ X

  27. 1 c# U% p8 C: z/ m9 ^) Y3 F' i! ]7 Q
  28. Audio" x+ J1 F$ L( u! K
  29. ID                                       : 2
    ' g( U5 p% t" G0 A  W
  30. Format                                   : AC-3
    ( a9 M: a; K4 c/ ]# L1 q
  31. Format/Info                              : Audio Coding 3" @# O' j7 m  Y6 M9 ]
  32. Commercial name                          : Dolby Digital
    . v) i8 I- }, v$ Z
  33. Codec ID                                 : A_AC3
    8 r) V7 Z2 E5 Q$ e! Z  w
  34. Duration                                 : 1 h 25 min
    ! u& t1 \+ R( V. Y
  35. Bit rate mode                            : Constant
    6 X8 U& b: i$ g
  36. Bit rate                                 : 640 kb/s
    5 p, @2 T, x0 y
  37. Channel(s)                               : 6 channels- z* K  M; E9 ]! q" e0 O8 U, s* y1 D- M
  38. Channel layout                           : L R C LFE Ls Rs* O, ~4 X  t! g: O
  39. Sampling rate                            : 48.0 kHz
    1 Z- F& N; _% _: ^
  40. Frame rate                               : 31.250 FPS (1536 SPF)& t/ p/ w& x, }
  41. Bit depth                                : 16 bits: j  [: O$ p1 L" n3 D2 u  K
  42. Compression mode                         : Lossy: X4 F9 l  G: ?$ Y+ n6 I
  43. Stream size                              : 392 MiB (12%). x$ k, s* W4 F2 G+ E
  44. Language                                 : English
    3 ^; k+ [1 Z+ ]9 m2 n+ s
  45. Service kind                             : Complete Main+ M6 u  G) Z6 T$ [2 J
  46. Default                                  : Yes2 B+ g  v9 x2 [1 A4 m& Z
  47. Forced                                   : No
    0 c" Y# l. P6 z% R

  48. 1 h2 T; {' V: _" P0 B
  49. Text
    ( ?0 u! h" P$ s+ L- J: Y6 V
  50. ID                                       : 36 m- O+ i) ~7 e- C& ~6 P: g0 v
  51. Format                                   : UTF-8
    1 Q: x( h; a3 d7 E
  52. Codec ID                                 : S_TEXT/UTF84 Z7 T  v: n4 p, K. p5 B% }  ~
  53. Codec ID/Info                            : UTF-8 Plain Text3 [' n# e8 m6 K& F& C( L0 I
  54. Duration                                 : 1 h 8 min8 G+ P% \2 p6 F, b- S/ q# K$ A
  55. Bit rate                                 : 7 b/s
    0 b  g2 r; `' D& @0 T
  56. Count of elements                        : 151- c* l* N' y" z& `
  57. Stream size                              : 3.65 KiB (0%)
    / N$ }6 c( i  R3 [# p2 C' R
  58. Language                                 : English
    3 Y2 z' V. A9 Z8 |# \* ~1 x
  59. Default                                  : Yes
    ! n( ?% g4 B2 L  H* T2 W5 B
  60. Forced                                   : Yes  p+ D9 B& R) p4 i, t* S
  61. ) o5 ^" L& L- P9 u9 t4 B/ }
  62. Menu
    0 u1 P% v  m- n9 N! S) s( q. Z: I
  63. 00:00:00.000                             : en:00:00:00.000
    ' y! n! l% U8 P. ^2 x" I) y
  64. 00:13:48.828                             : en:00:13:48.828
    & y4 K2 u! {+ E- e  J
  65. 00:25:04.586                             : en:00:25:04.5865 T8 _" a- K0 D5 k. U3 C; S2 H
  66. 00:36:05.789                             : en:00:36:05.7896 Q% L" d+ J/ u/ I3 e
  67. 00:47:17.334                             : en:00:47:17.334
    # r" D9 K6 V- ]4 F0 l' q
  68. 00:58:56.867                             : en:00:58:56.867# A  z: S7 S; @- e
  69. 01:11:05.052                             : en:01:11:05.052
    ( u! j' J9 D) Q+ }) |# ?# L% n
  70. 01:22:28.777                             : en:01:22:28.777
复制代码

, ]3 g( E* k+ u1 D$ b! P 精英反击/总司令 General.Commander.2019.720p.BluRay.x264-GUACAMOLE 3.28GB-2.png
9 n! h2 F" h; q! P$ c+ k! U* {5 ^, J+ O! |- j1 X8 a" m

" N! n! c* ~  v! D0 N7 }9 S$ A+ Q; @9 E2 c; m' c

" ^7 h3 F$ H0 \  j: X# X. t! T: H) D+ P/ g3 B

- o7 V, x. W9 V0 S( m
回复

使用道具 举报

级别:功成名就 Lv.9

注册时间
2019-4-24
最后登录
2020-8-6
听众
16
收听
0
主题
0
蓝光币
575 枚
贡献
0 点
发表于 2019-9-11 16:58:43 | 显示全部楼层
楼主发贴辛苦了,谢谢楼主分享!我觉得中国高清电影网是注册对了!
回复

使用道具 举报

级别:领衔主演 Lv.6

注册时间
2018-2-26
最后登录
2020-8-6
听众
19
收听
0
主题
0
蓝光币
290 枚
贡献
0 点
发表于 2019-9-12 09:45:10 | 显示全部楼层

9 k% Z; L: x4 s5 I9 _% M# x" P这东西我收了!谢谢楼主!中国高清电影网真好!
回复

使用道具 举报

懒得打字嘛,点击右侧快捷回复 【右侧内容,后台自定义】
您需要登录后才可以回帖 登录 | 立即注册

本版积分规则

Archiver|手机版|小黑屋| 中国高清网 ( ICP备17007870号-2 ) |网站地图 

GMT+8, 2020-8-7 12:17 , Processed in 0.150581 second(s), 39 queries .

Powered by HDchina X3.4

Copyright 2017-2019©HDchina.All right reserved

返回顶部 联系我们