查看: 44|回复: 2

[动作片] 精英出击/总司令 General.Commander.2019.720p.BluRay.x264-GUACAMOLE 3.28GB

[复制链接]

 成长值: 2570

级别:资源管理组

注册时间
2017-10-20
最后登录
2019-9-21
听众
1
收听
0
主题
83009
蓝光币
49643 枚
贡献
7337 点
发表于 2019-9-11 14:07:46 | 显示全部楼层 |阅读模式
精英反击/总司令 General.Commander.2019.720p.BluRay.x264-GUACAMOLE 3.28GB-1.png & H" D  G- {; i  r
5 ~& W* Y  e' V/ ?
译  名 精英反击 / 总司令. l' L. V$ O8 X
片  名 General Commander2 i& }8 b+ Q8 r; l- B# `. j
年  代 2019. m' D( W8 v, }( _" J! Q
产  地 英国 / 匈牙利 / 菲律宾! n. O  }- ?" N" p
类  别 行动 / 犯罪4 |$ h9 \  }. s
语  言 英语1 @4 ~! r; s6 h6 E5 G
上映日期 2019-05-28(美国)
: T% ?% t- w5 G6 b  \7 ~3 [IMDb评分  3.9/10 from 269 users
: y( z" j3 s- Q; ~4 a, `IMDb链接  http://www.imdb.com/title/tt7043534
8 D  t- N0 G7 p1 b豆瓣评分 0/10 from 0 users
# Q; F" ?5 @5 I2 j- X1 B* ~豆瓣链接 https://movie.douban.com/subject/27611392/) b6 g3 ^' K; s
片  长 81分钟- |9 X. ^: U: c/ |1 n5 E
导  演 Philippe Martinez, a- z6 x( u" b
编  剧 Philippe Martinez / Lisa Gabriel / Megan Brown% N, a4 _. f5 F. T( @: X& d9 L
主  演 史蒂文·席格 Steven Seagal. Q) a; R. E9 J- N9 A5 m+ W
       索尼亚·考琳 Sonia Couling9 q  P) B/ k: F7 i: W4 p
       Bryon Gibson$ U5 Z% m3 L$ l1 _  p& V' u/ d$ l4 `8 `4 E" G
       Mica Javier: n& Y. R; ?* Z  f8 C
       Soraya Torrens5 }. Z- M7 ]' Z
       Jai Day! D# B& q" X+ b* e
       Megan Brown& ?/ s5 f' I+ R5 P" C# ~/ Z9 c7 q
       Chris Pasone
1 s0 z$ R, K/ R  V1 r3 g  S       Billy Ray
- Y" v7 B( B; W3 ^3 L/ ^       罗恩·斯穆安伯格 Ron Smoorenburg- [5 |5 _/ S. k) p* F5 ]
       Valerio Zechini
- m  I! I9 M) e7 }/ j
/ n, t8 ~& P8 H. G* h: e
! D4 j1 K$ w7 U标  签 2018 | 英国 | 电视剧 | 犯罪 | 未看 | 行动 | 剧情' y4 G0 K( {# C* m4 i0 r' D: n

  t$ @( v7 g- t8 I9 ]/ w简  介  7 ?. U9 E2 s7 i$ _$ @) n% x
# f& y3 x. \1 A# V
  本剧报告了GRS奸细杰克?亚历山大(史蒂文?席格 Steven Seagal 饰)在一位香港富翁的帮助下,率领着他年轻的队员们冲击最为邪恶的罪犯的故事。
8 ~8 ?( A. }2 }  @) Z# J& G' Z
  1. Video4 U; o- X6 k9 p! c* i% V; |: j
  2. ID                                       : 18 Z( ~" h$ p  Z" R: u' U
  3. Format                                   : AVC
    & r+ g* ?/ d! R( V9 b
  4. Format/Info                              : Advanced Video Codec0 c7 {) Z1 Z! l5 u2 M. G$ t
  5. Format profile                           : <a href="/cdn-cgi/l/email-protection" class="__cf_email__" data-cfemail="0941606e6149453d2738">[email protected]</a>
    $ E" e/ l9 }2 g7 c
  6. Format settings                          : CABAC / 5 Ref Frames& {* F* d2 K) D# K+ Z
  7. Format settings, CABAC                   : Yes
    & V! w3 m# L! W7 n% H
  8. Format settings, Reference frames        : 5 frames3 ^! l- }7 q4 m8 O5 o0 q+ {0 p  f: W
  9. Codec ID                                 : V_MPEG4/ISO/AVC2 }9 A8 a% m2 F
  10. Duration                                 : 1 h 25 min2 j- t& t/ s8 U
  11. Bit rate                                 : 4 824 kb/s% O& F  A/ D' a3 c6 m, [
  12. Width                                    : 1 280 pixels
    " G. T" C! G# ], q! ?
  13. Height                                   : 536 pixels) a) X5 }3 F. A4 w+ @
  14. Display aspect ratio                     : 2.40:1
    8 W  Z( G: ?. O  p" D5 _
  15. Frame rate mode                          : Constant" P& @: {9 ]$ D$ z) f( x$ o$ q
  16. Frame rate                               : 23.976 (24000/1001) FPS
    : @, X/ m; n3 q# M# h0 ~
  17. Color space                              : YUV
    ! F! O- S" A. o4 l9 L+ ?
  18. Chroma subsampling                       : 4:2:0
    - u( M' z. @, k3 ]
  19. Bit depth                                : 8 bits
    ! _, r, S. r/ Q% ^/ W
  20. Scan type                                : Progressive& G4 G$ q; m) }- y) u1 {1 w' X9 t
  21. Bits/(Pixel*Frame)                       : 0.2936 e/ z" _8 t, g% L- o, s+ ]" {2 _
  22. Stream size                              : 2.89 GiB (88%)
    # V& b+ U5 g) i4 R+ k0 R2 z
  23. Writing library                          : x264 core 157 r2969 d4099dd
    & n) U. G% y5 v7 [+ l# M" d3 `
  24. Encoding settings                        : cabac=1 / ref=5 / deblock=1:0:0 / analyse=0x3:0x113 / me=umh / subme=8 / psy=1 / psy_rd=1.00:0.00 / mixed_ref=1 / me_range=16 / chroma_me=1 / trellis=2 / 8x8dct=1 / cqm=0 / deadzone=21,11 / fast_pskip=0 / chroma_qp_offset=-2 / threads=17 / lookahead_threads=2 / sliced_threads=0 / nr=0 / decimate=1 / interlaced=0 / bluray_compat=0 / constrained_intra=0 / bframes=3 / b_pyramid=2 / b_adapt=1 / b_bias=0 / direct=1 / weightb=1 / open_gop=0 / weightp=2 / keyint=250 / keyint_min=23 / scenecut=40 / intra_refresh=0 / rc_lookahead=50 / rc=2pass / mbtree=1 / bitrate=4824 / ratetol=1.0 / qcomp=0.60 / qpmin=0 / qpmax=69 / qpstep=4 / cplxblur=20.0 / qblur=0.5 / ip_ratio=1.40 / aq=1:1.00& C+ c0 A0 {: D; a6 v6 F: x
  25. Default                                  : Yes' L( Z  |) q9 }; }0 C
  26. Forced                                   : No
    / `9 h2 V- A% A5 W% O6 Z% A4 M
  27. " w& E: P4 D: [! t6 D
  28. Audio
    ' ?+ A& r9 J- X9 Z9 [
  29. ID                                       : 2" g& _7 @3 K) g0 s  r
  30. Format                                   : AC-3
    4 P3 R) G2 k$ @, f$ z
  31. Format/Info                              : Audio Coding 37 I5 P/ @. t  P- ]# C, T# b5 f7 b
  32. Commercial name                          : Dolby Digital2 ?, u2 t: ?- Q# e9 e7 ^
  33. Codec ID                                 : A_AC3
    $ h( C/ \$ E$ P* J
  34. Duration                                 : 1 h 25 min
      O, c0 J1 V* Z' V% V2 F
  35. Bit rate mode                            : Constant* |: m% s# v' u
  36. Bit rate                                 : 640 kb/s2 ?. R! \1 W. N9 S
  37. Channel(s)                               : 6 channels: `9 W8 ^+ a2 S* O7 M% B
  38. Channel layout                           : L R C LFE Ls Rs
    0 O# o0 k8 U# j4 s( |% C0 J1 N
  39. Sampling rate                            : 48.0 kHz
    3 B4 W0 t& {* \( ^! o8 @5 S
  40. Frame rate                               : 31.250 FPS (1536 SPF)
    6 }0 l& m! ~: S+ F
  41. Bit depth                                : 16 bits
    * s2 W0 k" ]; D, j& S$ E/ G
  42. Compression mode                         : Lossy
    * G# h/ i: j) K( S9 O
  43. Stream size                              : 392 MiB (12%)
    ! i2 i, P  x  \' X
  44. Language                                 : English
    8 }0 a6 ?  C/ h+ O) L$ L
  45. Service kind                             : Complete Main+ q) T0 E; `7 M  j9 a* g( S
  46. Default                                  : Yes
    $ p  K  f( z* l$ {$ e
  47. Forced                                   : No
    . B$ E6 X* @1 g# Z# E) @1 P8 W4 I1 j
  48. ' P. J0 j/ {0 X9 z* x
  49. Text
    % ?* i* g: W# N. \: A1 `5 P
  50. ID                                       : 3# z, i' _4 h6 T
  51. Format                                   : UTF-8
    . u( D* Y/ U* W) w- c. [$ }
  52. Codec ID                                 : S_TEXT/UTF8
    ' R$ a, R( l7 ^  E" Z) C
  53. Codec ID/Info                            : UTF-8 Plain Text1 L$ y  Q, t* P: O. U5 j  o
  54. Duration                                 : 1 h 8 min
    $ m4 r* K  g; ~8 e" M" `( f& A
  55. Bit rate                                 : 7 b/s% L7 ~  w' F  f# s; O% D0 M6 Z- S
  56. Count of elements                        : 1510 g; g0 k% R: ]0 H3 z. E0 \
  57. Stream size                              : 3.65 KiB (0%)
    - v' o( t2 [  o7 w6 t: Q6 }
  58. Language                                 : English
    # f* V' Y( [, Y) D
  59. Default                                  : Yes
    9 H  Q- C  ^4 P$ `. p
  60. Forced                                   : Yes
    / p3 |9 _# X2 `" A% o# h4 j2 X
  61. % f: V  T. d6 v6 ?5 H( o6 m! [
  62. Menu
    ! k- I6 ]9 ~% A! c
  63. 00:00:00.000                             : en:00:00:00.000: o3 y' E) k6 h
  64. 00:13:48.828                             : en:00:13:48.828
    1 q5 F9 ~5 v- \; O- L
  65. 00:25:04.586                             : en:00:25:04.586
    : R: z4 r; x. J& I0 @' G5 b1 g
  66. 00:36:05.789                             : en:00:36:05.7892 l. E* V* v0 I1 O: S, z
  67. 00:47:17.334                             : en:00:47:17.334
    ) {; Y7 u2 d& A  H- z0 h
  68. 00:58:56.867                             : en:00:58:56.867. D4 w9 t( n& z9 m+ X
  69. 01:11:05.052                             : en:01:11:05.052
    7 F" H3 y& m) z; _9 X  |% d! T4 v
  70. 01:22:28.777                             : en:01:22:28.777
复制代码
# Z" i4 }( d0 A% A0 z" x
精英反击/总司令 General.Commander.2019.720p.BluRay.x264-GUACAMOLE 3.28GB-2.png 8 f, G# G0 Y/ U, ~9 d

& @" ?8 G& N; x! s& T
! O6 t1 H7 u1 m. T# j7 d) y2 f: [3 ]& S# V

$ k- q, {6 M/ C! H( p8 x" C7 l7 c* s% P4 {! V

/ H9 L, @. v  u9 T6 K. W8 x
VIP会员免费任意下载本站所有资源!---点击开通
回复

使用道具 举报

级别:领衔主演 Lv.6

注册时间
2019-4-24
最后登录
2019-9-20
听众
13
收听
0
主题
0
蓝光币
111 枚
贡献
0 点
发表于 2019-9-11 16:58:43 | 显示全部楼层
楼主发贴辛苦了,谢谢楼主分享!我觉得中国高清电影网是注册对了!
VIP会员免费任意下载本站所有资源!---点击开通
回复

使用道具 举报

级别:荣升主角 Lv.5

注册时间
2018-2-26
最后登录
2019-9-21
听众
15
收听
0
主题
0
蓝光币
302 枚
贡献
0 点
发表于 2019-9-12 09:45:10 | 显示全部楼层
+ w& E: M! X0 Z* f/ M. z
这东西我收了!谢谢楼主!中国高清电影网真好!
VIP会员免费任意下载本站所有资源!---点击开通
回复

使用道具 举报

懒得打字嘛,点击右侧快捷回复 【右侧内容,后台自定义】
您需要登录后才可以回帖 登录 | 立即注册

本版积分规则

QQ|Archiver|手机版|小黑屋| 中国高清网 |网站地图

GMT+8, 2019-9-21 15:31 , Processed in 0.263803 second(s), 41 queries .

Powered by HDchina X3.4

Copyright 2017-2019©HDchina.All right reserved

返回顶部 联系我们