查看: 75|回复: 2

[动作片] 精英出击/总司令 General.Commander.2019.720p.BluRay.x264-GUACAMOLE 3.28GB

[复制链接]

 成长值: 3190

级别:资源管理组

注册时间
2017-10-20
最后登录
2019-11-18
听众
1
收听
0
主题
87049
蓝光币
62579 枚
贡献
11407 点
发表于 2019-9-11 14:07:46 | 显示全部楼层 |阅读模式
精英反击/总司令 General.Commander.2019.720p.BluRay.x264-GUACAMOLE 3.28GB-1.png
6 y2 a2 D' }0 }+ g$ S* U, }! o! c0 R, P2 s' U% j) h& l) D% {
译  名 精英反击 / 总司令
+ l! Z' H. I. D" k. n; L# r片  名 General Commander  l$ p0 @, R% L9 ~8 [* r) n
年  代 2019* i2 d. u2 X  n# _8 [
产  地 英国 / 匈牙利 / 菲律宾0 t! Z( a, u) |6 {% R/ y
类  别 行动 / 犯罪; I8 z/ z! Y( W5 g4 x) M  @( G3 j
语  言 英语! X: d' B( S3 V8 [
上映日期 2019-05-28(美国)1 j! J# Q7 t" i9 C5 v% ]& r
IMDb评分  3.9/10 from 269 users
0 ^3 X. y* s; U5 CIMDb链接  http://www.imdb.com/title/tt7043534% F# a! Y0 P3 A2 M# E
豆瓣评分 0/10 from 0 users3 K7 F: b. U6 _! b8 o- O- y
豆瓣链接 https://movie.douban.com/subject/27611392/0 a4 {. y' ]+ r. ]7 `0 X- @+ v
片  长 81分钟
/ u/ y7 o; q& V3 T; j导  演 Philippe Martinez3 l. }! k+ T8 ?5 M! M6 R
编  剧 Philippe Martinez / Lisa Gabriel / Megan Brown" s! @  O5 v8 Z2 @
主  演 史蒂文·席格 Steven Seagal7 J# ~6 K) G, v
       索尼亚·考琳 Sonia Couling/ g- Y, g$ H& w# Z* S' `- T$ X
       Bryon Gibson
! ^4 {. [; j: u: X. n2 j, e       Mica Javier
9 Y4 \% u- {8 v       Soraya Torrens
5 X$ ^6 V/ C# F( {       Jai Day
9 N: H8 ^# i, i* S       Megan Brown
) ]$ {' }- M8 h2 a5 [       Chris Pasone5 [8 L6 {0 l. R# S
       Billy Ray
, t5 T( b6 f$ o% {& C       罗恩·斯穆安伯格 Ron Smoorenburg
! I! G3 m( u6 E# i       Valerio Zechini/ @- E; ?2 [3 j- F9 O

' s* `) a8 d* `! s: v$ n/ S& |* A5 X- j& b, \6 r/ E
标  签 2018 | 英国 | 电视剧 | 犯罪 | 未看 | 行动 | 剧情; C3 s- i0 C' t! {/ K

2 p6 e% d4 m) T- U2 F简  介  
7 r6 {* |' M+ D" F
' C. L6 o' M* l5 Y: Z2 s. K/ H4 s0 h  本剧报告了GRS奸细杰克?亚历山大(史蒂文?席格 Steven Seagal 饰)在一位香港富翁的帮助下,率领着他年轻的队员们冲击最为邪恶的罪犯的故事。  h$ n7 H. E% X9 g) s  }5 f
  1. Video
    % w' I5 F* o5 A" n1 n) k
  2. ID                                       : 1
    & ^1 }8 l: M8 P8 f4 A6 D2 ?
  3. Format                                   : AVC
    * L5 r# M# Z6 \* ]; i
  4. Format/Info                              : Advanced Video Codec
    ; w" G" u0 g/ m& n9 h2 y
  5. Format profile                           : <a href="/cdn-cgi/l/email-protection" class="__cf_email__" data-cfemail="0941606e6149453d2738">[email protected]</a>1 U2 Y: W, n+ }% N, }
  6. Format settings                          : CABAC / 5 Ref Frames
    9 u: w. [8 a4 F  z  z: Y
  7. Format settings, CABAC                   : Yes+ F# `' W4 \, z: Y$ U" z& @0 V
  8. Format settings, Reference frames        : 5 frames
    " A$ }! d; j9 S3 |+ k, S8 ]8 O
  9. Codec ID                                 : V_MPEG4/ISO/AVC
    1 C. [* F0 \1 p& i# l1 b. f
  10. Duration                                 : 1 h 25 min0 f! ^1 G8 I/ D* E8 K
  11. Bit rate                                 : 4 824 kb/s
    ( j  F- g7 ]3 u0 Z& U, g2 l( h  j. O
  12. Width                                    : 1 280 pixels$ `0 f; i4 a( T+ \8 R# d
  13. Height                                   : 536 pixels
    # o$ o! M5 ~5 p2 S3 R
  14. Display aspect ratio                     : 2.40:1
    5 {& Q% C, I& r
  15. Frame rate mode                          : Constant# W9 P% Y; O5 u
  16. Frame rate                               : 23.976 (24000/1001) FPS9 }6 E% [/ c$ n/ `/ m" B
  17. Color space                              : YUV2 M" v: _2 f# X, |. t9 g  S4 D/ D
  18. Chroma subsampling                       : 4:2:0
      p: o+ M% V' `! R) t, H
  19. Bit depth                                : 8 bits9 L# p, H1 T8 a, _3 @
  20. Scan type                                : Progressive
    . {/ X$ o) g! H1 H& R5 K1 O, c
  21. Bits/(Pixel*Frame)                       : 0.293
    # N2 o, }) _1 `8 g( J* q; [. N
  22. Stream size                              : 2.89 GiB (88%)- N$ G' R$ z; r+ u; Z- }& @3 Q
  23. Writing library                          : x264 core 157 r2969 d4099dd. O& F9 i6 A0 h+ E
  24. Encoding settings                        : cabac=1 / ref=5 / deblock=1:0:0 / analyse=0x3:0x113 / me=umh / subme=8 / psy=1 / psy_rd=1.00:0.00 / mixed_ref=1 / me_range=16 / chroma_me=1 / trellis=2 / 8x8dct=1 / cqm=0 / deadzone=21,11 / fast_pskip=0 / chroma_qp_offset=-2 / threads=17 / lookahead_threads=2 / sliced_threads=0 / nr=0 / decimate=1 / interlaced=0 / bluray_compat=0 / constrained_intra=0 / bframes=3 / b_pyramid=2 / b_adapt=1 / b_bias=0 / direct=1 / weightb=1 / open_gop=0 / weightp=2 / keyint=250 / keyint_min=23 / scenecut=40 / intra_refresh=0 / rc_lookahead=50 / rc=2pass / mbtree=1 / bitrate=4824 / ratetol=1.0 / qcomp=0.60 / qpmin=0 / qpmax=69 / qpstep=4 / cplxblur=20.0 / qblur=0.5 / ip_ratio=1.40 / aq=1:1.003 o1 l& U4 ]1 E) g1 r1 e8 z
  25. Default                                  : Yes
    & |7 B6 g. L3 _; W
  26. Forced                                   : No
      j3 L8 Q& }& c% V9 ]' p
  27. 0 k8 C! i3 M- ?- S- c' u
  28. Audio2 @; F1 j& f+ C9 `+ S% g
  29. ID                                       : 2
    " P5 E: S8 p! ]+ H$ ~
  30. Format                                   : AC-3
    , {7 S+ |- k7 g% S5 x6 R. K  G2 V: `; W
  31. Format/Info                              : Audio Coding 30 E7 Z; {; K# p; s+ J% M
  32. Commercial name                          : Dolby Digital
    5 p; R/ t8 U# \
  33. Codec ID                                 : A_AC36 @* u6 d' F" ?) X* B7 Q% F: h
  34. Duration                                 : 1 h 25 min; S7 W5 B1 F3 w) j8 r, y: _& D
  35. Bit rate mode                            : Constant3 K$ ?* ~* c+ T/ m3 \* V9 P
  36. Bit rate                                 : 640 kb/s9 L3 q% X- C6 K. a7 X
  37. Channel(s)                               : 6 channels; m& X9 E4 w' l/ ?: [; X
  38. Channel layout                           : L R C LFE Ls Rs$ Q. S5 g/ E% B* Y6 ^
  39. Sampling rate                            : 48.0 kHz
    # v8 Z% [/ B! A
  40. Frame rate                               : 31.250 FPS (1536 SPF)4 ~6 M" f( N5 N- H- Z
  41. Bit depth                                : 16 bits
    + ?0 T5 V2 |0 d
  42. Compression mode                         : Lossy. W' T5 F: c& o9 Z- P
  43. Stream size                              : 392 MiB (12%)2 t5 V# `  Z1 c7 Y( M4 i
  44. Language                                 : English
    ' h9 _6 w5 s& O# c8 h
  45. Service kind                             : Complete Main
    & P1 {0 M9 @" H; f* W' R
  46. Default                                  : Yes7 X4 G3 @7 G5 H' q5 M9 m+ S' p
  47. Forced                                   : No
    3 a( n( v# Q5 }( [/ i+ {
  48. 9 m; ^& Y0 ^; w% f- ?
  49. Text
    " z5 {0 m& ~# f5 X1 l
  50. ID                                       : 3
    + R7 t& z. [$ M+ }; V3 F
  51. Format                                   : UTF-8- B% s1 l5 Z+ ~% e# M4 l4 h
  52. Codec ID                                 : S_TEXT/UTF8* J1 Z9 R! ~2 X( m+ @
  53. Codec ID/Info                            : UTF-8 Plain Text
      u% L1 [9 b5 R, t5 f4 _, B
  54. Duration                                 : 1 h 8 min
    ; |6 Y* B1 L/ {. e9 `
  55. Bit rate                                 : 7 b/s
    ( ?8 D  q3 X& b' s7 t. `" m
  56. Count of elements                        : 151
    8 h2 o! ]$ m) N9 d( X7 D
  57. Stream size                              : 3.65 KiB (0%)0 M# [; a* z* D& y3 h' o( X
  58. Language                                 : English9 ]% {+ b) b; S  A( Q8 X
  59. Default                                  : Yes7 F; s' ]" H7 }
  60. Forced                                   : Yes
    3 c7 e- a& E8 G

  61. 4 l& o" s8 d$ a! F' ]0 w
  62. Menu8 \5 a6 p2 {. p: N5 P& P6 i
  63. 00:00:00.000                             : en:00:00:00.0003 E. y3 Q8 V1 x. k8 l( @5 D
  64. 00:13:48.828                             : en:00:13:48.828( L* k- V6 j2 c1 Q# O
  65. 00:25:04.586                             : en:00:25:04.586
    . s7 }! b& v7 a' _# t
  66. 00:36:05.789                             : en:00:36:05.789
    " M6 [! B2 W" ]  I& [5 X# c
  67. 00:47:17.334                             : en:00:47:17.3340 _9 N& T; X1 I7 j7 M0 s
  68. 00:58:56.867                             : en:00:58:56.867
    / I. w6 _/ z2 v- [" B
  69. 01:11:05.052                             : en:01:11:05.052
    6 D1 c: g  @9 M3 y7 a* {. t, U
  70. 01:22:28.777                             : en:01:22:28.777
复制代码
, b) @( o( X! Y6 R- K$ V; w
精英反击/总司令 General.Commander.2019.720p.BluRay.x264-GUACAMOLE 3.28GB-2.png
3 Z2 N; J, F/ f7 {  K( U0 R- {6 J! c$ E
; n) k$ Q4 s, j. u* F) \/ O
% {) \& _" G; u  ^% x

9 s3 A/ U8 I) {, O. A: A2 X3 }4 ?
, E" B; [; C: u" G
& K  k  w. H3 p2 x
VIP会员免费任意下载本站所有资源!---点击开通
回复

使用道具 举报

级别:一举成名 Lv.7

注册时间
2019-4-24
最后登录
2019-11-14
听众
13
收听
0
主题
0
蓝光币
194 枚
贡献
0 点
发表于 2019-9-11 16:58:43 | 显示全部楼层
楼主发贴辛苦了,谢谢楼主分享!我觉得中国高清电影网是注册对了!
VIP会员免费任意下载本站所有资源!---点击开通
回复

使用道具 举报

级别:荣升主角 Lv.5

注册时间
2018-2-26
最后登录
2019-11-16
听众
15
收听
0
主题
0
蓝光币
276 枚
贡献
0 点
发表于 2019-9-12 09:45:10 | 显示全部楼层

  n2 E* {. b' d/ K这东西我收了!谢谢楼主!中国高清电影网真好!
VIP会员免费任意下载本站所有资源!---点击开通
回复

使用道具 举报

懒得打字嘛,点击右侧快捷回复 【右侧内容,后台自定义】
您需要登录后才可以回帖 登录 | 立即注册

本版积分规则

QQ|Archiver|手机版|小黑屋| 中国高清网 |网站地图 

GMT+8, 2019-11-18 09:49 , Processed in 0.189193 second(s), 37 queries .

Powered by HDchina X3.4

Copyright 2017-2019©HDchina.All right reserved

返回顶部 联系我们