查看: 36|回复: 2

[动作片] 杀戮都市2 Gantz.2.Perfect.Answer.2011.iNTERNAL.720p.BluRay.x264-REGRET 7.65GB

[复制链接]

 成长值: 2560

级别:资源管理组

注册时间
2017-10-20
最后登录
2019-9-19
听众
1
收听
0
主题
82921
蓝光币
49296 枚
贡献
7249 点
发表于 2019-9-11 14:03:12 | 显示全部楼层 |阅读模式
杀戮都会2 Gantz.2.Perfect.Answer.2011.iNTERNAL.720p.BluRay.x264-REGRET 7.65GB-1.png 4 d# O, f# L2 l% W
* V7 h7 s5 Y% y6 T: K/ o
译  名 杀戮都会2( h! c: w3 H# F. s) K6 ]
片  名 GANTZ PERFECT ANSWER# A9 I) L$ l9 b, ^, a1 ^
年  代 2011+ |7 V; L& f8 v* k7 i
产  地 日本
! ]* }! y1 D! b6 o! D) Y% W类  别 行动 / 科幻
+ u6 v, b* y6 H% k语  言 日语
: n: H# b$ C- `3 G上映日期 2011-04-23(日本)
0 L( \$ W4 {! eIMDb评分  6.3/10 from 3576 users
% I+ d  N+ `* Y0 S: Y2 _+ ZIMDb链接  http://www.imdb.com/title/tt1525836
$ A7 k- S4 g/ J/ s. n豆瓣评分 6.6/10 from 14118 users
4 Z2 {; s7 g, Q# q) Z豆瓣链接 https://movie.douban.com/subject/4079119/
- Y0 [; \$ k2 ]2 u4 O: E/ Y- A( q片  长 141分钟6 q+ M: R7 i+ L, W& |
导  演 佐藤信介 Shinsuke Sato2 u  o# x! K2 A$ y3 U, W! q. `9 z7 E
编  剧 渡边雄介 Y?suke Watanabe / 奥浩哉 Hiroya Oku. Y2 @8 s8 t- B: ~/ P' c
主  演 二宫和也 Kazunari Ninomiya7 v( V1 Y) y/ L4 p. d
       松山研一 Ken'ichi Matsuyama
/ C1 e, E# M2 L: m% j# l       吉高由里子 Yuriko Yoshitaka
5 \1 s" M" u) G5 l' E       本乡奏多 Kanata Hong?
  V# o/ W6 I- q; V% {       夏菜 Natsuna
, l2 }! w0 H" t) n' J       绫野刚 G? Ayano
5 x+ ~# x8 d; O+ ^3 J& ?8 l! W& ]       水泽奈子 Nako Mizusawa; ?  C& M( y# G0 l0 d7 r  Y
       千阪健介
5 }  @5 c+ w* {/ [       白石隼也 Shun'ya Shiraishi
5 y9 q1 h- G$ B       伊藤步 Ayumi Ito/ C% G+ _) f+ n0 s$ |; A1 d
       田口智朗 Tomorowo Taguchi( ~9 C+ V7 G2 G! w0 N, B
       山田孝之 Takayuki Yamada# ]9 Q  {# T( T6 @
       户田菜穗 Naho Toda# n/ l5 K% X0 Y1 y8 V( W# A! Z- L) ?
$ L% Q1 Z2 l! `- v
" O0 o9 M$ Z$ ]! C4 A! }+ `
标  签 二宫和也 | 日本电影 | 日本 | 科幻 | 松山健一 | 2011 | 本乡奏多 | 电影; U$ x, c, P% |) X: ^" Y, e
! A5 a% J1 y4 G, W% u: R* v
简  介  8 }2 z# T, N3 b9 a9 j- I

9 M4 m) Z2 I. K' O, j9 [0 o  为了新生死去的好友加藤胜(松山健一 饰)以及其他逝者,玄野计(二宫和也 饰)与战友们5个月来不竭与各类外星人作战,赢取更多的分数。在这一进程中,不竭有新丁加入Gantz,而新丁似乎又对这个看似陌生的异类天下有着莫名的熟悉感。某天,本应死去的加藤忽然出现在现实天下,这令玄野等人大为不解。而以后的战役也显现出了诸多希奇之处,比如在与黑衣星人的战役中,敌我双方居然同时出现在人满为患的地铁车箱内,以致于血流漂杵,引发庞大伤亡。现实与虚幻的界限起头模糊,来势汹汹的外星人也预备向Gantz的总部倡议最初的进犯……$ D0 G4 ^8 N% N% m6 g
  本片按照奥浩哉的同名漫画改编。
/ l6 Q" d! J( T  R% ^
  1. Video# u5 E4 a& w/ S/ \
  2. ID                                       : 1
      C( d; G' P# M' u. x
  3. Format                                   : AVC
    , d; F9 n+ G; o& B5 A
  4. Format/Info                              : Advanced Video Codec" w; U1 I% L& X8 O* t! r
  5. Format profile                           : <a href="/cdn-cgi/l/email-protection" class="__cf_email__" data-cfemail="8bc3e2ece3cbc7bfa5ba">[email protected]</a>4 j+ {( r2 v6 |) s2 z" d2 ^
  6. Format settings                          : CABAC / 5 Ref Frames# t% U* b  \, \! M
  7. Format settings, CABAC                   : Yes
    * @1 C! H4 [) M1 O: `# a
  8. Format settings, Reference frames        : 5 frames* G6 H  W) }, J" H, c
  9. Codec ID                                 : V_MPEG4/ISO/AVC
    * O6 ^# O% J4 P3 _/ I
  10. Duration                                 : 2 h 21 min
    ! M- E5 {# z/ `) w" L
  11. Bit rate                                 : 4 700 kb/s% v  g2 B% @8 d7 N+ Y, p
  12. Width                                    : 1 280 pixels
    & I8 E+ r/ t3 N$ T9 Q% P7 X( }
  13. Height                                   : 688 pixels  ^/ J, c( Y* L! e* Y1 i3 j& V
  14. Display aspect ratio                     : 1.85:19 b, E6 [, \6 i4 k& `
  15. Frame rate mode                          : Constant
    + G5 D: Y0 K, J/ `, H/ S
  16. Frame rate                               : 23.976 (24000/1001) FPS
    . p9 I, T/ _4 Y
  17. Color space                              : YUV
    6 r" t$ q& f8 L( u1 j- ~  O
  18. Chroma subsampling                       : 4:2:0& k! w4 R, `" a' z3 v& S" v/ P1 z
  19. Bit depth                                : 8 bits8 e. Y7 E  a, [5 X; Q! }
  20. Scan type                                : Progressive
    " f3 }4 p8 ?% Y5 U+ K% H
  21. Bits/(Pixel*Frame)                       : 0.223
    6 N- y6 u4 E+ {" h6 T
  22. Stream size                              : 4.65 GiB (61%)
    " `% \. [; k  P/ X. G+ {
  23. Writing library                          : x264 core 157 r2970 5493be87 l/ s2 W7 d, [8 E. i4 \2 F  W4 p3 v
  24. Encoding settings                        : cabac=1 / ref=5 / deblock=1:-3:-3 / analyse=0x3:0x133 / me=umh / subme=9 / psy=1 / psy_rd=1.00:0.00 / mixed_ref=1 / me_range=16 / chroma_me=1 / trellis=2 / 8x8dct=1 / cqm=0 / deadzone=21,11 / fast_pskip=0 / chroma_qp_offset=-2 / threads=21 / lookahead_threads=1 / sliced_threads=0 / nr=0 / decimate=1 / interlaced=0 / bluray_compat=0 / constrained_intra=0 / bframes=3 / b_pyramid=2 / b_adapt=1 / b_bias=0 / direct=3 / weightb=1 / open_gop=0 / weightp=2 / keyint=240 / keyint_min=24 / scenecut=40 / intra_refresh=0 / rc_lookahead=50 / rc=2pass / mbtree=1 / bitrate=4700 / ratetol=1.0 / qcomp=0.60 / qpmin=0 / qpmax=69 / qpstep=4 / cplxblur=20.0 / qblur=0.5 / ip_ratio=1.40 / aq=1:1.00
    : z1 E1 d9 B2 J9 m. f* F5 @3 M0 `  o
  25. Language                                 : English
      [8 _/ t3 C9 X4 `" F: Z* N( Z
  26. Default                                  : Yes
    * V1 r! H( ^4 i9 M
  27. Forced                                   : No
    7 r) m7 i7 u9 T' z2 n# `
  28. $ o% N+ l  L$ ^  L7 T& Z; K  S
  29. Audio #19 L& j4 m) W& c, f& k
  30. ID                                       : 2; o+ ?6 R! y! e! P' r
  31. Format                                   : DTS
    % R8 @" }9 k. J+ h  D2 V" }4 p
  32. Format/Info                              : Digital Theater Systems8 z9 `4 }+ h7 l
  33. Codec ID                                 : A_DTS
      o+ V) r* m6 Q! W
  34. Duration                                 : 2 h 21 min7 x' [" }0 {& b! n3 ?: E3 u& @4 T
  35. Bit rate mode                            : Constant. H6 c! V" S6 C4 ]! M: y
  36. Bit rate                                 : 1 509 kb/s
    4 X  m# I; d% F9 }
  37. Channel(s)                               : 6 channels
    7 b. U, p$ f0 Q: e1 V
  38. Channel layout                           : C L R Ls Rs LFE9 @; Y; F* ^( S4 \9 @' ^
  39. Sampling rate                            : 48.0 kHz
    1 a( w/ z: v% ^- \1 f! n. R
  40. Frame rate                               : 93.750 FPS (512 SPF)# n9 ?  q0 N' R& x6 N
  41. Bit depth                                : 24 bits
    7 i& c# e" s  M3 j0 D/ w
  42. Compression mode                         : Lossy
    + d9 ?/ E! a2 U, y* ~/ a! [
  43. Stream size                              : 1.49 GiB (20%)
    ! l0 \( k9 N% r* B
  44. Language                                 : Japanese
    : Q. [0 ~  ?2 G4 I1 `
  45. Default                                  : Yes
    3 A1 G. \0 R* `# ^$ {+ w
  46. Forced                                   : No
    % Y- Q) V) v) T" c! |

  47. % f3 z5 C' |$ }. t
  48. Audio #2
    ' Y/ Q. s4 D- I( g2 T
  49. ID                                       : 3
    7 M/ R$ j. H+ N- V
  50. Format                                   : DTS# w* L. l0 c$ e2 K7 b
  51. Format/Info                              : Digital Theater Systems
    ; s# b" j$ `5 G6 |; y
  52. Codec ID                                 : A_DTS
    # o7 f8 g' S7 c3 S/ n. W: k4 [
  53. Duration                                 : 2 h 21 min) ]: L7 t$ ?4 {
  54. Bit rate mode                            : Constant$ r6 ^8 x: \6 A
  55. Bit rate                                 : 1 509 kb/s
    + g3 O& K- V2 L8 H
  56. Channel(s)                               : 6 channels
    0 G. I5 D9 Y7 i  ]1 o) ]* i  K" j
  57. Channel layout                           : C L R Ls Rs LFE
    , g: a. r- _1 G$ \, p' e0 \# s
  58. Sampling rate                            : 48.0 kHz  y. Z1 J' d7 K4 F. e7 o- Q
  59. Frame rate                               : 93.750 FPS (512 SPF)
    ! _* H; ]' u+ U7 \% V
  60. Bit depth                                : 24 bits8 p1 F: w  z" y3 X* v6 u
  61. Compression mode                         : Lossy
    3 S+ U1 s  D' W: y) ^4 e5 L
  62. Stream size                              : 1.49 GiB (20%)9 g5 T# L9 U" q: h& e5 N
  63. Language                                 : English0 L7 Q" ?% T# A% U+ D/ F
  64. Default                                  : No. ]9 ?  {+ j6 h$ u+ C
  65. Forced                                   : No. M" `/ h% J& S' o

  66. & a' m* v0 f* f8 U+ }. m, i
  67. Text #1
    ; R3 ~# n/ }% d
  68. ID                                       : 4
    ! {, |6 Y. w% |: i4 ]/ G$ e: ~
  69. Format                                   : UTF-8
    ) f9 Y$ c: w, V" v2 a, i
  70. Codec ID                                 : S_TEXT/UTF80 N; A% G% D0 @! a
  71. Codec ID/Info                            : UTF-8 Plain Text7 X" z, Z; e0 w; r7 e% y6 l# e& b
  72. Duration                                 : 2 h 21 min
    4 C( L4 Z6 ^# m1 s
  73. Bit rate                                 : 21 b/s
    + B# o/ o' V3 r8 M! O  W% Y& B
  74. Count of elements                        : 798
      G8 Z/ V. f$ G6 j" G
  75. Stream size                              : 22.5 KiB (0%)0 |; n+ G" P" ?
  76. Title                                    : English
    1 h. q# g; n+ L+ B1 k
  77. Language                                 : English$ y% A: q7 x4 i6 [4 ^$ R7 [6 q
  78. Default                                  : Yes
    9 p" r$ F  R7 }+ x6 `
  79. Forced                                   : Yes% B4 f2 Y* B/ {% e

  80. 1 F# l. }1 v  p0 h/ g
  81. Text #23 C8 P$ D. r% f) t) W1 W; v' \
  82. ID                                       : 5% W6 R9 b. O# F8 c6 _1 e. b
  83. Format                                   : UTF-8/ u: G. C, e$ g
  84. Codec ID                                 : S_TEXT/UTF88 {! ^) w1 t5 D! s* k
  85. Codec ID/Info                            : UTF-8 Plain Text
    : q  c! _6 U" p0 y' r
  86. Duration                                 : 2 h 20 min. o8 S( e9 F: p  n% l
  87. Bit rate                                 : 3 b/s
    $ i& f, Z! m# i2 q( b. g
  88. Count of elements                        : 1128 K/ G% Z( @% z3 Z7 G1 x
  89. Stream size                              : 3.13 KiB (0%)
      d0 }6 u& l( S4 l8 c/ _3 I
  90. Title                                    : Forced subtitles for English audio
    8 Z" o1 a3 c" Q/ h0 ~
  91. Language                                 : English
    + Y7 s. B. u0 Q1 ]
  92. Default                                  : No
    ; d; h0 G/ h" r: U
  93. Forced                                   : No/ u' d4 o9 W2 l

  94. , _5 m& n& n4 w6 g, B: \
  95. Menu
    . L5 I3 ]( s# z# K) b
  96. 00:00:00.000                             : en:00:00:00.000
    8 V7 p* V0 d& N( L; ^
  97. 00:02:37.199                             : en:00:02:37.199
    7 M6 ^$ _$ Z7 n! {
  98. 00:09:39.996                             : en:00:09:39.996
    ) Q* a0 A+ d$ c
  99. 00:15:27.009                             : en:00:15:27.009
    ' Y! j8 F' z- v# `0 Y/ _' F8 a0 b
  100. 00:22:49.910                             : en:00:22:49.910
    5 I, L8 r! H0 X) e7 E. `
  101. 00:29:45.117                             : en:00:29:45.117  M1 ?; r4 t! F% P& N: W
  102. 00:40:05.820                             : en:00:40:05.820
    4 p2 H  D# x9 S1 [5 [
  103. 00:47:14.040                             : en:00:47:14.040
    2 P6 f. W& R* y
  104. 00:50:37.201                             : en:00:50:37.201$ z, ~8 y5 `3 F! E
  105. 00:58:09.361                             : en:00:58:09.361
    8 W: v2 d' z3 X
  106. 01:07:23.248                             : en:01:07:23.248, m: m3 u( T9 V5 Z
  107. 01:15:48.878                             : en:01:15:48.878
    5 R: P4 E7 H# [7 w5 E% S( h
  108. 01:23:47.940                             : en:01:23:47.9401 E+ |& E4 ?/ `, g, ^2 M* r
  109. 01:35:11.623                             : en:01:35:11.623( H5 D* y" ?) o5 b
  110. 01:40:08.085                             : en:01:40:08.0850 U6 b9 G1 @" F) b5 v4 \) u
  111. 01:49:02.953                             : en:01:49:02.953" Q6 \/ N! {+ x, L7 b) L1 h
  112. 01:57:25.455                             : en:01:57:25.4554 Y2 j$ I  e1 O" a/ j; R1 o9 Z( o
  113. 02:08:28.701                             : en:02:08:28.7019 E4 r; c+ f* |: C% b& I
  114. 02:16:46.698                             : en:02:16:46.698
    - j! `2 `( {9 k  i1 i* O
  115. 02:21:29.481                             : en:02:21:29.481
复制代码
. u3 y" w) v* G1 p
杀戮都会2 Gantz.2.Perfect.Answer.2011.iNTERNAL.720p.BluRay.x264-REGRET 7.65GB-2.png
1 S% a3 s8 C* {6 u  o  l9 C9 J$ [- A7 j1 @( c4 b" Z) j2 S! ~

5 b+ o- {2 W' |% n8 R3 z. A0 I, f* v6 o% Z  d5 Y
. [& u/ i+ M$ _) r
( n# ^9 A4 C# D: _5 ~5 m4 q
VIP会员免费任意下载本站所有资源!---点击开通
回复

使用道具 举报

级别:领衔主演 Lv.6

注册时间
2019-4-24
最后登录
2019-9-19
听众
13
收听
0
主题
0
蓝光币
107 枚
贡献
0 点
发表于 2019-9-11 16:59:21 | 显示全部楼层
楼主发贴辛苦了,谢谢楼主分享!我觉得中国高清电影网是注册对了!
VIP会员免费任意下载本站所有资源!---点击开通
回复

使用道具 举报

级别:荣升主角 Lv.5

注册时间
2018-2-26
最后登录
2019-9-19
听众
15
收听
0
主题
0
蓝光币
304 枚
贡献
0 点
发表于 2019-9-12 09:31:58 | 显示全部楼层
楼主发贴辛苦了,谢谢楼主分享!我觉得中国高清电影网是注册对了!
VIP会员免费任意下载本站所有资源!---点击开通
回复

使用道具 举报

懒得打字嘛,点击右侧快捷回复 【右侧内容,后台自定义】
您需要登录后才可以回帖 登录 | 立即注册

本版积分规则

QQ|Archiver|手机版|小黑屋| 中国高清网 |网站地图

GMT+8, 2019-9-20 04:48 , Processed in 0.481097 second(s), 39 queries .

Powered by HDchina X3.4

Copyright 2017-2019©HDchina.All right reserved

返回顶部 联系我们