查看: 143|回复: 3

[动作片] 杀戮都市2 Gantz.2.Perfect.Answer.2011.iNTERNAL.720p.BluRay.x264-REGRET 7.65GB

[复制链接]

 成长值: 4120

级别:资源管理组

注册时间
2017-10-20
最后登录
2020-2-18
听众
1
收听
0
主题
92435
蓝光币
99612 枚
贡献
16797 点
发表于 2019-9-11 14:03:12 | 显示全部楼层 |阅读模式
杀戮都会2 Gantz.2.Perfect.Answer.2011.iNTERNAL.720p.BluRay.x264-REGRET 7.65GB-1.png 9 ^, d# F; K5 d

& ], \  ~2 ?4 G) W( k8 v译  名 杀戮都会2" }6 P" A3 m: e+ a* z1 Q9 M3 g$ ?
片  名 GANTZ PERFECT ANSWER7 w$ O  t+ I3 \; u2 m3 U4 E
年  代 2011- P8 N7 z% U( K9 U- U1 c
产  地 日本+ \1 e0 Y: i* H) E
类  别 行动 / 科幻
" x, f6 t5 S. @( o+ N' K, c语  言 日语
' M1 R& r5 P3 H% k" K7 t上映日期 2011-04-23(日本)! b! V3 r- J8 m" s
IMDb评分  6.3/10 from 3576 users
* ~; r4 i6 W( `7 Y, aIMDb链接  http://www.imdb.com/title/tt15258360 A1 A5 e& U( N) U
豆瓣评分 6.6/10 from 14118 users
* I7 h4 B6 \8 w; w* `& z& N9 L9 }豆瓣链接 https://movie.douban.com/subject/4079119/
8 _9 _; y6 ]$ J片  长 141分钟! ^9 u  [8 ]+ s8 z, K1 J% S1 M
导  演 佐藤信介 Shinsuke Sato5 F$ `& L* o& b; e
编  剧 渡边雄介 Y?suke Watanabe / 奥浩哉 Hiroya Oku
9 r9 o2 s& J4 r% r- h主  演 二宫和也 Kazunari Ninomiya) ]& v$ j5 L7 P
       松山研一 Ken'ichi Matsuyama
  d2 N; v( C7 q& j: t% a1 x       吉高由里子 Yuriko Yoshitaka
( e3 o/ G# ~4 X8 P. Z9 G5 N       本乡奏多 Kanata Hong?3 E% b! Y3 T; D* J
       夏菜 Natsuna0 \: M0 T* r# k/ S
       绫野刚 G? Ayano
& j6 h8 e$ I! ~       水泽奈子 Nako Mizusawa
5 e2 C. V4 w) S' R0 F. W- k       千阪健介$ ?% I- [4 L3 {2 i6 N: C6 R
       白石隼也 Shun'ya Shiraishi
8 I; P/ t5 T3 p. Z  G- Z       伊藤步 Ayumi Ito! h& r8 l7 B. N$ u; I( Z
       田口智朗 Tomorowo Taguchi
0 E2 Y8 J7 x$ Z7 G+ ]       山田孝之 Takayuki Yamada2 w& {8 c! L5 o- w: Z( E( v
       户田菜穗 Naho Toda
- m( o) g' T2 G0 ^0 r% K/ z: s, E6 \/ J1 R) @

5 T5 ]$ r& ^" H- j标  签 二宫和也 | 日本电影 | 日本 | 科幻 | 松山健一 | 2011 | 本乡奏多 | 电影% o9 S7 ]% O. w3 e5 T' i* ^1 N

( p2 V7 Q) S: B7 B1 s0 D2 O简  介  
2 d* W' x$ u' g( @! \$ P/ F* X# w" B2 F
  为了新生死去的好友加藤胜(松山健一 饰)以及其他逝者,玄野计(二宫和也 饰)与战友们5个月来不竭与各类外星人作战,赢取更多的分数。在这一进程中,不竭有新丁加入Gantz,而新丁似乎又对这个看似陌生的异类天下有着莫名的熟悉感。某天,本应死去的加藤忽然出现在现实天下,这令玄野等人大为不解。而以后的战役也显现出了诸多希奇之处,比如在与黑衣星人的战役中,敌我双方居然同时出现在人满为患的地铁车箱内,以致于血流漂杵,引发庞大伤亡。现实与虚幻的界限起头模糊,来势汹汹的外星人也预备向Gantz的总部倡议最初的进犯……
! U& t4 }) r* W( v9 R  本片按照奥浩哉的同名漫画改编。
% [# _6 h: d$ f+ T/ k
  1. Video
    6 T4 s9 I3 {1 j% g: @  x
  2. ID                                       : 1% v- Q4 {$ u) }0 S
  3. Format                                   : AVC
    - h6 c) \8 l0 m0 Y/ {2 G1 H
  4. Format/Info                              : Advanced Video Codec
    8 {- V) I- R/ N* Q6 k/ V; z/ E
  5. Format profile                           : <a href="/cdn-cgi/l/email-protection" class="__cf_email__" data-cfemail="8bc3e2ece3cbc7bfa5ba">[email protected]</a>
    0 ~' v8 B/ g) Q- g
  6. Format settings                          : CABAC / 5 Ref Frames' I6 A* h5 E& V$ U* w- b
  7. Format settings, CABAC                   : Yes) ?' J, n' `( y1 P  @; o
  8. Format settings, Reference frames        : 5 frames
    : o$ ^; a# |* g
  9. Codec ID                                 : V_MPEG4/ISO/AVC
    ; Y2 Q! M+ T1 q
  10. Duration                                 : 2 h 21 min: u2 E9 l; ~. H4 A0 _0 ?
  11. Bit rate                                 : 4 700 kb/s
    ! E' S+ q( k2 z' Z7 e% v8 \! l
  12. Width                                    : 1 280 pixels3 u) ~0 {3 _) `& \! s
  13. Height                                   : 688 pixels
    1 Y( a3 Y" \6 a6 y1 L
  14. Display aspect ratio                     : 1.85:13 |" y3 f) M2 m# P/ v9 ~1 ]
  15. Frame rate mode                          : Constant8 G) O' V! N# Q0 q
  16. Frame rate                               : 23.976 (24000/1001) FPS& B1 b% h  X) o1 ~
  17. Color space                              : YUV" O; Z6 l" }7 o0 \7 B5 F% l
  18. Chroma subsampling                       : 4:2:09 A* F2 o' z2 a1 H, i# P' V+ d; j4 ]
  19. Bit depth                                : 8 bits
    * m: x& U  M5 G: [; ?) p7 v1 H) M+ w
  20. Scan type                                : Progressive( @% k; B, _$ q& h4 U2 L" o
  21. Bits/(Pixel*Frame)                       : 0.223
    5 F" v: Q, L% }0 p0 r
  22. Stream size                              : 4.65 GiB (61%)
    4 e# ^) R2 M# x5 m
  23. Writing library                          : x264 core 157 r2970 5493be86 Y* E+ |6 n, X" F
  24. Encoding settings                        : cabac=1 / ref=5 / deblock=1:-3:-3 / analyse=0x3:0x133 / me=umh / subme=9 / psy=1 / psy_rd=1.00:0.00 / mixed_ref=1 / me_range=16 / chroma_me=1 / trellis=2 / 8x8dct=1 / cqm=0 / deadzone=21,11 / fast_pskip=0 / chroma_qp_offset=-2 / threads=21 / lookahead_threads=1 / sliced_threads=0 / nr=0 / decimate=1 / interlaced=0 / bluray_compat=0 / constrained_intra=0 / bframes=3 / b_pyramid=2 / b_adapt=1 / b_bias=0 / direct=3 / weightb=1 / open_gop=0 / weightp=2 / keyint=240 / keyint_min=24 / scenecut=40 / intra_refresh=0 / rc_lookahead=50 / rc=2pass / mbtree=1 / bitrate=4700 / ratetol=1.0 / qcomp=0.60 / qpmin=0 / qpmax=69 / qpstep=4 / cplxblur=20.0 / qblur=0.5 / ip_ratio=1.40 / aq=1:1.00
    , I, y* w" @: ~
  25. Language                                 : English
    & |- b. g: O& a' T
  26. Default                                  : Yes
    3 e/ k; l9 N/ }% Q
  27. Forced                                   : No3 F  y9 ^2 y% c, T/ ~
  28. & h' q# z: ]. O# V+ \
  29. Audio #1
    9 `% g3 Q) t7 K2 T5 y$ J; S, P+ q
  30. ID                                       : 2
    # b( T) T% T  F* K  j8 e. |
  31. Format                                   : DTS9 x5 {& [2 D4 ]! N
  32. Format/Info                              : Digital Theater Systems# }1 E2 w5 c" ]6 _" f( b. U
  33. Codec ID                                 : A_DTS
    0 L6 h0 T+ ~1 E6 V$ M' t5 r
  34. Duration                                 : 2 h 21 min" |2 r; |0 Q  J# F7 e# g% J% ^3 |1 F
  35. Bit rate mode                            : Constant7 n& J' ~/ R4 E. d* [
  36. Bit rate                                 : 1 509 kb/s
    % j" i9 l( F* M6 ]/ }$ G
  37. Channel(s)                               : 6 channels
    + K) ]+ I& m5 v( U9 s2 I
  38. Channel layout                           : C L R Ls Rs LFE
    * {9 j- g0 J: O6 J
  39. Sampling rate                            : 48.0 kHz
    2 m6 |+ X; O4 |+ K+ k7 i) e
  40. Frame rate                               : 93.750 FPS (512 SPF)
    / {9 R: y  ]: D+ E+ X! K0 \
  41. Bit depth                                : 24 bits
    * I7 |; ]4 U- V( y
  42. Compression mode                         : Lossy
    & A7 i8 u( j: M; S7 p) Z$ H0 q
  43. Stream size                              : 1.49 GiB (20%)
    # R1 E; ~! j3 d* e
  44. Language                                 : Japanese9 ]  Z* j; B; l( d$ O
  45. Default                                  : Yes4 ~0 e; Q% I; O& O5 H4 S* x
  46. Forced                                   : No
    ! y* V& l9 c: n% _* o: Z2 D
  47. 9 M. M. ~$ }* C: H# \0 w2 E* L
  48. Audio #2
    ; D  {. F$ B# L% d( H- X  P0 l
  49. ID                                       : 3
    5 w8 F; h- A4 Z/ C  x
  50. Format                                   : DTS5 v) H# ]8 ^, q3 B+ ?# ]- s
  51. Format/Info                              : Digital Theater Systems; G- u0 t# T3 B5 ~0 `; h
  52. Codec ID                                 : A_DTS
    % m" d: @9 o/ k. o& g6 Y
  53. Duration                                 : 2 h 21 min& q- e) W8 T  h# P- l. @% v
  54. Bit rate mode                            : Constant
    8 P8 u/ f8 s9 `/ D: {2 ~
  55. Bit rate                                 : 1 509 kb/s
      {$ X' C2 b  o7 T
  56. Channel(s)                               : 6 channels
    ) L$ h; `" q, d1 C; G% Z! }
  57. Channel layout                           : C L R Ls Rs LFE
    ) [- S  F2 o0 {) j6 o
  58. Sampling rate                            : 48.0 kHz
    : u/ B" f# N" z% I: r) Y
  59. Frame rate                               : 93.750 FPS (512 SPF)# A" A5 S% N9 a9 o9 ~
  60. Bit depth                                : 24 bits6 \/ X' c# O9 v( H1 C
  61. Compression mode                         : Lossy( j/ U% p" R4 P' j9 Q6 O- n
  62. Stream size                              : 1.49 GiB (20%). y7 M- p- [  W7 v5 J4 W
  63. Language                                 : English& l% t3 R: B# d/ R
  64. Default                                  : No( r6 O2 E- c/ u# M
  65. Forced                                   : No
    * X0 _2 t$ @* L! O: S

  66. - l5 i9 O7 T% q; l0 V
  67. Text #1
    0 c% J* x! c$ F1 V8 @
  68. ID                                       : 4
    2 n6 t1 c( z" U4 U4 y
  69. Format                                   : UTF-85 P* W: @% u. E* D( B0 w
  70. Codec ID                                 : S_TEXT/UTF8& n$ X5 M9 q. P
  71. Codec ID/Info                            : UTF-8 Plain Text
    - `( N8 t" y0 ^+ k
  72. Duration                                 : 2 h 21 min
    . V. F' E" ?5 A! T/ U0 s9 e# @/ l
  73. Bit rate                                 : 21 b/s
    6 i4 b0 [" G8 x( c
  74. Count of elements                        : 7983 `% i. Z! V; a0 T
  75. Stream size                              : 22.5 KiB (0%)* m" D% f3 `7 H- P6 S0 W
  76. Title                                    : English0 c1 b1 ~/ G/ I; x5 e: s
  77. Language                                 : English
    : B/ ?; o  m$ d: _2 q* D* f% z
  78. Default                                  : Yes
    + I1 j7 @  e# h+ e( K
  79. Forced                                   : Yes8 F, Q% M0 p6 @. z, t0 z2 ^

  80. : U1 |( p  t* Z  C" R
  81. Text #25 }# v/ g7 [4 g9 u; V
  82. ID                                       : 5
    8 {) |9 m, M  q; [2 N
  83. Format                                   : UTF-83 g4 h% `% B9 U+ G% y
  84. Codec ID                                 : S_TEXT/UTF8
    $ o  I9 ]5 N' |+ p" U( x/ S' j
  85. Codec ID/Info                            : UTF-8 Plain Text
    # V, C4 s8 @  I% }! x
  86. Duration                                 : 2 h 20 min
    ! b' g( a7 a6 ^
  87. Bit rate                                 : 3 b/s
    5 s4 n% e. e* g3 r- `" |/ M
  88. Count of elements                        : 112' f- {4 w: J/ g3 h
  89. Stream size                              : 3.13 KiB (0%)
    ; T# v9 _1 }: {9 ^4 t" X1 O6 K
  90. Title                                    : Forced subtitles for English audio! r0 C' K7 L& z" @' i+ l
  91. Language                                 : English
    ' W; b" E0 E$ o: B! ^4 P
  92. Default                                  : No  X! X9 O+ R$ G/ s8 v
  93. Forced                                   : No5 T/ v! _+ Q9 t" p- j

  94. 9 R( S/ D* G/ c
  95. Menu
    / q9 h; y( V; e4 E3 R4 W
  96. 00:00:00.000                             : en:00:00:00.000. C  ~3 R- Q9 h& U' B, c. }) D, I7 S
  97. 00:02:37.199                             : en:00:02:37.199
    ! r8 \  j3 }5 Z0 d7 e( i) i
  98. 00:09:39.996                             : en:00:09:39.996" K, v1 ?" S9 V* D; i  o
  99. 00:15:27.009                             : en:00:15:27.009
    1 J2 R! I, B5 v( b3 h
  100. 00:22:49.910                             : en:00:22:49.910# d' _; x! |: s. Z+ g4 c6 k
  101. 00:29:45.117                             : en:00:29:45.117' f2 E# T0 p/ p; W, G/ R4 K
  102. 00:40:05.820                             : en:00:40:05.8208 C$ b8 L  Q# e; R" }( l' d
  103. 00:47:14.040                             : en:00:47:14.0408 [% e; K0 N' o1 z5 u4 A
  104. 00:50:37.201                             : en:00:50:37.201
    : i2 K4 U7 L; K3 R
  105. 00:58:09.361                             : en:00:58:09.361
    3 t4 c6 d0 L/ N- {& N& f
  106. 01:07:23.248                             : en:01:07:23.248
      f+ i1 i$ m# ?6 J0 |
  107. 01:15:48.878                             : en:01:15:48.8780 j2 I$ `3 O" h  t- e
  108. 01:23:47.940                             : en:01:23:47.940
    : F6 {! z" _5 P# D$ o& u
  109. 01:35:11.623                             : en:01:35:11.623" U  B; I+ \$ Y- V
  110. 01:40:08.085                             : en:01:40:08.085$ w, K4 K/ I( u# s+ V0 X
  111. 01:49:02.953                             : en:01:49:02.953
    ' A) S0 S9 m8 ~/ q
  112. 01:57:25.455                             : en:01:57:25.455
    # W, R/ r. Y* S
  113. 02:08:28.701                             : en:02:08:28.7018 T* H) P: R# k1 e$ a7 B; H6 _
  114. 02:16:46.698                             : en:02:16:46.698
    7 e1 h/ N4 O5 l' y) M
  115. 02:21:29.481                             : en:02:21:29.481
复制代码

8 c1 ^' T  L* G 杀戮都会2 Gantz.2.Perfect.Answer.2011.iNTERNAL.720p.BluRay.x264-REGRET 7.65GB-2.png
) u+ d9 d  R; C- I, p4 F$ k/ e, [; \% N. I
4 e7 b+ x! ?) E
) I  O. P, @1 z2 ]7 m* a7 W/ J9 W

* l8 R( W+ r$ i. Y
( t1 c. ?# X& T
VIP会员免费任意下载本站所有资源!---点击开通
回复

使用道具 举报

级别:一线明星 Lv.8

注册时间
2019-4-24
最后登录
2020-2-18
听众
14
收听
0
主题
0
蓝光币
325 枚
贡献
0 点
发表于 2019-9-11 16:59:21 | 显示全部楼层
楼主发贴辛苦了,谢谢楼主分享!我觉得中国高清电影网是注册对了!
VIP会员免费任意下载本站所有资源!---点击开通
回复

使用道具 举报

级别:荣升主角 Lv.5

注册时间
2018-2-26
最后登录
2020-2-18
听众
16
收听
0
主题
0
蓝光币
226 枚
贡献
0 点
发表于 2019-9-12 09:31:58 | 显示全部楼层
楼主发贴辛苦了,谢谢楼主分享!我觉得中国高清电影网是注册对了!
VIP会员免费任意下载本站所有资源!---点击开通
回复

使用道具 举报

级别:群众演员 Lv.3

注册时间
2019-10-11
最后登录
2020-2-16
听众
1
收听
0
主题
0
蓝光币
238 枚
贡献
0 点
发表于 2019-10-11 16:21:38 | 显示全部楼层
感谢楼主,找了很久的高清版终于找到了
VIP会员免费任意下载本站所有资源!---点击开通
回复

使用道具 举报

懒得打字嘛,点击右侧快捷回复 【右侧内容,后台自定义】
您需要登录后才可以回帖 登录 | 立即注册

本版积分规则

Archiver|手机版|小黑屋| 中国高清网 |网站地图

GMT+8, 2020-2-19 08:25 , Processed in 0.295347 second(s), 37 queries .

Powered by HDchina X3.4

Copyright 2017-2019©HDchina.All right reserved

返回顶部 联系我们