查看: 30|回复: 1

[10bit.SDR] 赛车总动员/反斗车王 Cars.2006.2160p.BluRay.x265.10bit.SDR.TrueHD.7.1.Atmos-SWTYBLZ 27.54GB

[复制链接]

 成长值: 2570

级别:资源管理组

注册时间
2017-10-20
最后登录
2019-9-21
听众
1
收听
0
主题
83009
蓝光币
49641 枚
贡献
7337 点
发表于 2019-9-10 14:28:41 | 显示全部楼层 |阅读模式
赛车总带动/反斗车王 Cars.2006.2160p.BluRay.x265.10bit.SDR.TrueHD.7.1.Atmos-SWTYBLZ 27.54GB-1.png

译  名 赛车总带动 / 反斗车王(港) / 小汽车的故事 / 汽车总带动 / 飞车正传
片  名 Cars
年  代 2006
产  地 美国
类  别 笑剧 / 动画 / 冒险
语  言 英语 / 意大利语 / 日语 / 依地语
上映日期 2006-06-09(美国) / 2006-08-22(中国大陆)
IMDb评分  7.1/10 from 335631 users
IMDb链接  http://www.imdb.com/title/tt0317219
豆瓣评分 7.9/10 from 120886 users
豆瓣链接 https://movie.douban.com/subject/1428878/
片  长 117分钟
导  演 约翰·拉塞特 John Lasseter / 乔·兰福特 Joe Ranft
编  剧 约翰·拉塞特 John Lasseter / 乔·兰福特 Joe Ranft / 乔根·克卢宾 Jorgen Klubien / 丹·福格尔曼 Dan Fogelman / 基尔·默里 Kiel Murray / 菲尔·洛林 Phil Lorin / 史蒂夫·波赛尔 Steve Purcell
主  演 欧文·威尔逊 Owen Wilson
       保罗·纽曼 Paul Newman
       邦尼·亨特 Bonnie Hunt
       王牌接线员拉里 Larry The Cable Guy
       切奇·马林 Cheech Marin
       托尼·夏尔赫布 Tony Shalhoub
       盖多·克隆尼 Guido Quaroni
       詹妮弗·路易斯 Jenifer Lewis
       保罗·杜利 Paul Dooley
       迈克尔·沃利斯 Michael Wallis
       乔治·卡林 George Carlin
       凯瑟琳·海蒙德 Katherine Helmond
       约翰·拉岑贝格 John Ratzenberger
       乔·兰福特 Joe Ranft
       迈克尔·基顿 Michael Keaton
       伊迪·迈克莱尔 Edie McClurg
       安德鲁·斯坦顿 Andrew Stanton
       小戴尔·恩哈特 Dale Earnhardt Jr.
       迈克尔·舒马赫 Michael Schumacher
       杰·雷诺 Jay Leno
       乔纳斯·里维拉 Jonas Rivera
       卢·罗曼诺 Lou Romano
       艾丽莎·奈特 Elissa Knight
       林赛·柯林斯 Lindsey Collins


标  签 动画 | 美国 | Pixar | 迪斯尼 | 笑剧 | 动画片 | 2006 | 美国电影

简  介  

  汽车天下中,一年一度的活塞杯再次拉开序幕。红色跑车“闪电”麦坤和“冠军”、“路霸”是冠军最有力的合作者。作为新人,麦坤具有极高的天赋,同时也是一个才高气傲的家伙。经过严重剧烈的匹敌,这三辆车同时冲过尽头线。由于没法判定终极优越者,组委会决议一个月后在加州洛杉矶召开一次只要这三辆车加入的殊死战,只要最初的胜者才能捧得活塞杯。
  信心满满麦坤和同伴拖车麦大叔早早出发。可是长时候的疲惫驾驶,令麦大叔失慎将麦坤丢在半路。麦坤东闯西撞,无意间来到了被众车忘记的油车水镇。因躲避警长的追捕,麦坤损坏了小镇的马路。在法官哈迪逊韩医生和律师保时捷莎莉的判决下,他被迫留在这里修路。短短几天相处,麦坤和小镇的居民渐渐和谐起来,同时他也爱上了美丽的莎莉。只不外,路终有修完的时辰,未完的角逐仍在期待着他……

获奖情况  

  第79届奥斯卡金像奖(2007)
  最好动画长片(提名) 约翰·拉塞特
  最好原创歌曲(提名) 兰迪·纽曼

  第64届金球奖(2007)
  电影类 最好动画长片

  第34届动画安妮奖(2007)
  最好动画长片
  最好导演(提名) 约翰·拉塞特
  最好编剧(提名) 丹·福格尔曼
  最好配乐 兰迪·纽曼
  最好艺术指导(提名) William Cone
  最好动画脚色(提名) 卡洛斯·巴埃纳 / Bobby Podesta
  最好动画结果(提名) Keith Daniel Klohn / Erdem Taylan
  1. Video
  2. ID                                       : 1
  3. Format                                   : HEVC
  4. Format/Info                              : High Efficiency Video Coding
  5. Format profile                           : Main <a href="/cdn-cgi/l/email-protection" class="__cf_email__" data-cfemail="714041313d445f40">[email protected]</a>@High
  6. Codec ID                                 : V_MPEGH/ISO/HEVC
  7. Duration                                 : 1 h 56 min
  8. Bit rate                                 : 25.8 Mb/s
  9. Width                                    : 3 840 pixels
  10. Height                                   : 1 606 pixels
  11. Display aspect ratio                     : 2.40:1
  12. Frame rate mode                          : Constant
  13. Frame rate                               : 23.976 (24000/1001) FPS
  14. Color space                              : YUV
  15. Chroma subsampling                       : 4:2:0
  16. Bit depth                                : 10 bits
  17. Bits/(Pixel*Frame)                       : 0.175
  18. Stream size                              : 21.1 GiB (77%)
  19. Title                                    : Cars.2006.2160p.BluRay.x265.10bit.SDR.TrueHD.7.1.Atmos-SWTYBLZ
  20. Writing library                          : x265 3.0ed72af837053:[Windows][GCC 8.2.0][64 bit] 10bit
  21. Encoding settings                        : cpuid=1111039 / frame-threads=16 / numa-pools=24,24,24,24 / wpp / no-pmode / no-pme / no-psnr / no-ssim / log-level=2 / input-csp=1 / input-res=3840x1606 / interlace=0 / total-frames=167975 / level-idc=51 / high-tier=1 / uhd-bd=0 / ref=3 / no-allow-non-conformance / repeat-headers / annexb / aud / hrd / info / hash=0 / no-temporal-layers / no-open-gop / min-keyint=1 / keyint=24 / gop-lookahead=0 / bframes=6 / b-adapt=2 / b-pyramid / bframe-bias=0 / rc-lookahead=25 / lookahead-slices=4 / scenecut=40 / radl=0 / no-splice / no-intra-refresh / ctu=64 / min-cu-size=8 / no-rect / no-amp / max-tu-size=32 / tu-inter-depth=1 / tu-intra-depth=1 / limit-tu=0 / rdoq-level=0 / dynamic-rd=0.00 / no-ssim-rd / signhide / no-tskip / nr-intra=0 / nr-inter=0 / no-constrained-intra / strong-intra-smoothing / max-merge=2 / limit-refs=3 / no-limit-modes / me=1 / subme=2 / merange=57 / temporal-mvp / weightp / no-weightb / no-analyze-src-pics / deblock=1:1 / no-sao / no-sao-non-deblock / rd=3 / no-early-skip / rskip / no-fast-intra / no-tskip-fast / no-cu-lossless / no-b-intra / no-splitrd-skip / rdpenalty=0 / psy-rd=0.40 / psy-rdoq=0.00 / no-rd-refine / no-lossless / cbqpoffs=0 / crqpoffs=0 / rc=crf / crf=14.0 / qcomp=0.60 / qpstep=4 / stats-write=0 / stats-read=0 / vbv-maxrate=160000 / vbv-bufsize=160000 / vbv-init=0.9 / crf-max=0.0 / crf-min=0.0 / ipratio=1.40 / pbratio=1.30 / aq-mode=1 / aq-strength=0.40 / cutree / zone-count=0 / no-strict-cbr / qg-size=32 / no-rc-grain / qpmax=69 / qpmin=0 / no-const-vbv / sar=1 / overscan=0 / videoformat=5 / range=0 / colorprim=2 / transfer=2 / colormatrix=2 / chromaloc=0 / display-window=0 / max-cll=0,0 / min-luma=0 / max-luma=1023 / log2-max-poc-lsb=8 / vui-timing-info / vui-hrd-info / slices=1 / opt-qp-pps / opt-ref-list-length-pps / no-multi-pass-opt-rps / scenecut-bias=0.05 / no-opt-cu-delta-qp / no-aq-motion / no-hdr / no-hdr-opt / no-dhdr10-opt / no-idr-recovery-sei / analysis-reuse-level=5 / scale-factor=0 / refine-intra=0 / refine-inter=0 / refine-mv=0 / refine-ctu-distortion=0 / no-limit-sao / ctu-info=0 / no-lowpass-dct / refine-analysis-type=0 / copy-pic=1 / max-ausize-factor=1.0 / no-dynamic-refine / no-single-sei / no-hevc-aq / qp-adaptation-range=1.00
  22. Default                                  : Yes
  23. Forced                                   : No

  24. Audio #1
  25. ID                                       : 2
  26. Format                                   : MLP FBA 16-ch
  27. Format/Info                              : Meridian Lossless Packing FBA with 16-channel presentation
  28. Commercial name                          : Dolby TrueHD with Dolby Atmos
  29. Codec ID                                 : A_TRUEHD
  30. Duration                                 : 1 h 56 min
  31. Bit rate mode                            : Variable
  32. Bit rate                                 : 7 098 kb/s
  33. Maximum bit rate                         : 9 315 kb/s
  34. Channel(s)                               : 8 channels
  35. Channel layout                           : L R C LFE Ls Rs Lb Rb
  36. Sampling rate                            : 48.0 kHz
  37. Frame rate                               : 1 200.000 FPS (40 SPF)
  38. Compression mode                         : Lossless
  39. Stream size                              : 5.79 GiB (21%)
  40. Title                                    : Cars.2006.2160p.BluRay.x265.10bit.SDR.TrueHD.7.1.Atmos-SWTYBLZ
  41. Language                                 : English
  42. Default                                  : Yes
  43. Forced                                   : No
  44. Number of dynamic objects                : 13
  45. Bed channel count                        : 1 channel
  46. Bed channel configuration                : LFE

  47. Audio #2
  48. ID                                       : 3
  49. Format                                   : AC-3
  50. Format/Info                              : Audio Coding 3
  51. Commercial name                          : Dolby Digital
  52. Codec ID                                 : A_AC3
  53. Duration                                 : 1 h 56 min
  54. Bit rate mode                            : Constant
  55. Bit rate                                 : 640 kb/s
  56. Channel(s)                               : 6 channels
  57. Channel layout                           : L R C LFE Ls Rs
  58. Sampling rate                            : 48.0 kHz
  59. Frame rate                               : 31.250 FPS (1536 SPF)
  60. Bit depth                                : 16 bits
  61. Compression mode                         : Lossy
  62. Stream size                              : 535 MiB (2%)
  63. Title                                    : Cars.2006.2160p.BluRay.x265.10bit.SDR.TrueHD.7.1.Atmos-SWTYBLZ
  64. Language                                 : English
  65. Service kind                             : Complete Main
  66. Default                                  : No
  67. Forced                                   : No

  68. Text #1
  69. ID                                       : 4
  70. Format                                   : UTF-8
  71. Codec ID                                 : S_TEXT/UTF8
  72. Codec ID/Info                            : UTF-8 Plain Text
  73. Duration                                 : 1 h 55 min
  74. Bit rate                                 : 67 b/s
  75. Count of elements                        : 1543
  76. Stream size                              : 57.3 KiB (0%)
  77. Title                                    : English-SRT
  78. Language                                 : English
  79. Default                                  : Yes
  80. Forced                                   : No

  81. Text #2
  82. ID                                       : 5
  83. Format                                   : PGS
  84. Muxing mode                              : zlib
  85. Codec ID                                 : S_HDMV/PGS
  86. Codec ID/Info                            : Picture based subtitle format used on BDs/HD-DVDs
  87. Duration                                 : 1 h 55 min
  88. Bit rate                                 : 48.3 kb/s
  89. Count of elements                        : 3574
  90. Stream size                              : 39.8 MiB (0%)
  91. Title                                    : English-PGS
  92. Language                                 : English
  93. Default                                  : No
  94. Forced                                   : No

  95. Text #3
  96. ID                                       : 6
  97. Format                                   : PGS
  98. Muxing mode                              : zlib
  99. Codec ID                                 : S_HDMV/PGS
  100. Codec ID/Info                            : Picture based subtitle format used on BDs/HD-DVDs
  101. Duration                                 : 1 h 55 min
  102. Bit rate                                 : 35.3 kb/s
  103. Count of elements                        : 2798
  104. Stream size                              : 29.0 MiB (0%)
  105. Title                                    : Spanish-PGS
  106. Language                                 : Spanish
  107. Default                                  : No
  108. Forced                                   : No

  109. Menu
  110. 00:00:00.000                             : en:Chapter 01
  111. 00:09:38.244                             : en:Chapter 02
  112. 00:13:48.828                             : en:Chapter 03
  113. 00:16:19.853                             : en:Chapter 04
  114. 00:19:53.483                             : en:Chapter 05
  115. 00:24:33.597                             : en:Chapter 06
  116. 00:27:27.187                             : en:Chapter 07
  117. 00:28:12.774                             : en:Chapter 08
  118. 00:29:42.155                             : en:Chapter 09
  119. 00:33:58.077                             : en:Chapter 10
  120. 00:35:53.901                             : en:Chapter 11
  121. 00:41:51.175                             : en:Chapter 12
  122. 00:45:56.587                             : en:Chapter 13
  123. 00:48:41.043                             : en:Chapter 14
  124. 00:50:39.494                             : en:Chapter 15
  125. 00:54:40.819                             : en:Chapter 16
  126. 00:57:48.214                             : en:Chapter 17
  127. 01:01:29.435                             : en:Chapter 18
  128. 01:02:59.108                             : en:Chapter 19
  129. 01:05:43.272                             : en:Chapter 20
  130. 01:07:43.309                             : en:Chapter 21
  131. 01:09:49.810                             : en:Chapter 22
  132. 01:11:27.741                             : en:Chapter 23
  133. 01:15:01.747                             : en:Chapter 24
  134. 01:15:58.303                             : en:Chapter 25
  135. 01:20:14.643                             : en:Chapter 26
  136. 01:22:22.187                             : en:Chapter 27
  137. 01:24:59.219                             : en:Chapter 28
  138. 01:27:32.247                             : en:Chapter 29
  139. 01:32:37.510                             : en:Chapter 30
  140. 01:46:18.121                             : en:Chapter 31
  141. 01:48:31.963                             : en:Chapter 32
复制代码

赛车总带动/反斗车王 Cars.2006.2160p.BluRay.x265.10bit.SDR.TrueHD.7.1.Atmos-SWTYBLZ 27.54GB-2.png 赛车总带动/反斗车王 Cars.2006.2160p.BluRay.x265.10bit.SDR.TrueHD.7.1.Atmos-SWTYBLZ 27.54GB-3.png 赛车总带动/反斗车王 Cars.2006.2160p.BluRay.x265.10bit.SDR.TrueHD.7.1.Atmos-SWTYBLZ 27.54GB-4.png 赛车总带动/反斗车王 Cars.2006.2160p.BluRay.x265.10bit.SDR.TrueHD.7.1.Atmos-SWTYBLZ 27.54GB-5.png 赛车总带动/反斗车王 Cars.2006.2160p.BluRay.x265.10bit.SDR.TrueHD.7.1.Atmos-SWTYBLZ 27.54GB-6.png 赛车总带动/反斗车王 Cars.2006.2160p.BluRay.x265.10bit.SDR.TrueHD.7.1.Atmos-SWTYBLZ 27.54GB-7.png 赛车总带动/反斗车王 Cars.2006.2160p.BluRay.x265.10bit.SDR.TrueHD.7.1.Atmos-SWTYBLZ 27.54GB-8.png






本帖隐藏的下载地址需要VIP会员才可阅读,您需要升级才可阅读,点击这里升级VIP

VIP会员免费任意下载本站所有资源!---点击开通
回复

使用道具 举报

级别:领衔主演 Lv.6

注册时间
2019-4-24
最后登录
2019-9-20
听众
13
收听
0
主题
0
蓝光币
111 枚
贡献
0 点
发表于 2019-9-11 13:41:14 | 显示全部楼层
楼主发贴辛苦了,谢谢楼主分享!我觉得中国高清电影网是注册对了!
VIP会员免费任意下载本站所有资源!---点击开通
回复

使用道具 举报

懒得打字嘛,点击右侧快捷回复 【右侧内容,后台自定义】
您需要登录后才可以回帖 登录 | 立即注册

本版积分规则

QQ|Archiver|手机版|小黑屋| 中国高清网 |网站地图

GMT+8, 2019-9-21 15:26 , Processed in 0.451974 second(s), 39 queries .

Powered by HDchina X3.4

Copyright 2017-2019©HDchina.All right reserved

返回顶部 联系我们