查看: 24|回复: 1

[剧情片] 欧洲欧洲 Europa.Europa.1990.720p.BluRay.x264-USURY 6.56GB

[复制链接]

 成长值: 2560

级别:资源管理组

注册时间
2017-10-20
最后登录
2019-9-19
听众
1
收听
0
主题
82921
蓝光币
49296 枚
贡献
7249 点
发表于 2019-9-9 21:50:23 | 显示全部楼层 |阅读模式
欧洲欧洲 Europa.Europa.1990.720p.BluRay.x264-USURY 6.56GB-1.png
1 h  G1 N- D) T! V
# j7 Y! I& T' m: }译  名 欧洲欧洲 / Europa Europa / 希特勒青年队队员所罗门 / 欧罗巴,欧罗巴
4 L8 Q6 O! n$ H7 X, h$ M% X片  名 Hitlerjunge Salomon
+ S( l, G' H! y年  代 1990
; h  Z8 t  W( X  _! S' h7 ~产  地 法国 / 德国 / 波兰# R- B, {( J9 e$ u1 o  }. M! c+ v4 `
类  别 剧情 / 历史 / 战争5 S4 n0 S! {/ }# [8 J/ i$ C8 M) h
语  言 德语 / 波兰语 / 希伯来语 / 俄语
. f4 [0 B9 u2 y上映日期 1990-11-14
: E, F. x( o: `3 I1 p. rIMDb评分  7.6/10 from 13824 users
) B" m7 a. S, @7 RIMDb链接  http://www.imdb.com/title/tt0099776
1 z' D/ J" R+ n! a, J  O豆瓣评分 7.9/10 from 925 users
" h7 \4 ~' \& j- G豆瓣链接 https://movie.douban.com/subject/1294557/% ^# O6 t! ~2 E  F" }4 V
片  长 112 分钟
! B! O: t, \# |: h0 a: ]8 g' b导  演 Agnieszka Holland+ T& y9 R% S# d3 Z/ K' f, Z
编  剧 Agnieszka Holland
: J% J0 a( P/ x% j2 C' }主  演 Marco Hofschneider
6 c5 P, ]- J9 D2 N- i7 ~       Julie Delpy7 z) U8 r8 X) T; K0 N4 Z
       René Hofschneider
# i1 D/ i: l- p& P" H7 }& k" q- z5 K       Piotr Kozlowski
2 p8 n. B% Z+ N2 z! b7 w: P( h
8 p' a$ Y! z3 _. S6 C( f6 r" N! `% s1 s3 w9 H
标  签 德国 | 二战 | 战争 | 波兰 | 犹太人 | 德国电影 | 法国 | AgnieszkaHolland
' N6 d" n0 u4 e0 C& B+ J8 r! p3 e" ]; ~. _9 H* b, N0 O
简  介  
" k9 j# X6 S6 |5 i. }8 a) r# S2 b9 z$ Q8 I& F
  影片按照Solly Perel的实在履历改编,报告了和希特勒同一天生日的13岁德国犹太男孩Solly在二战时代经过机灵过人的应变才能和绝无唯一的偶合,保全生命,并终极与集合营中的兄长团圆的使人赞叹的故事。片中年轻的Solly是苏联共青团员,是德军的战役豪杰,是希特勒青年队的队员,甚至还爱上了一个纯雅利安女孩,但犹太人的特别标志——割礼,却无时无刻提醒着他的身份。从无所谓、苍茫到怨恨,战争让他承当了太多与年龄不相当的压力,但终极他仍然认同了自己的民族,并在成年后绝不犹豫地为自己的儿子也实行了割礼。$ {: p4 B4 b& r+ ?7 C

' S* G1 w. I* P2 j8 D* g获奖情况  ) P5 V& i# Z7 e% u" A

6 r5 o' \- m/ U/ E( Q* q3 ?  第64届奥斯卡金像奖(1992)
$ W$ R1 M2 ]$ v9 u0 y/ n8 _  最好改编剧本(提名) 阿格涅丝卡·霍兰# T( _9 p1 H3 B; a& ^( \
( g5 u4 }' q# K# O8 \
  第46届英国电影学院奖(1993)
# r+ L: ?6 [, _  x  电影奖 最好非英语片(提名) 艾特·布奥尼 / 阿格涅丝卡·霍兰 / 玛格丽特·梅内格
5 a7 r' O. g4 i* F
  1. Video' O- s# \9 r* l8 c% [; I
  2. ID                                       : 1
    , z* H9 U9 ]8 r$ i5 Y% r$ v4 z
  3. Format                                   : AVC
    ( e6 q! K$ B( l2 j8 l4 @
  4. Format/Info                              : Advanced Video Codec
    # x- j) d2 r3 T/ J% @& @/ o
  5. Format profile                           : <a href="/cdn-cgi/l/email-protection" class="__cf_email__" data-cfemail="a3ebcac4cbe3ef978d92">[email protected]</a>$ U" P  J+ f) o3 }9 e& ~- Z
  6. Format settings                          : CABAC / 5 Ref Frames% A$ M, @5 s, q5 ?" j' P
  7. Format settings, CABAC                   : Yes. P; B! x. i6 T* y6 Q7 {
  8. Format settings, Reference frames        : 5 frames
    8 P" U3 F# L! b
  9. Codec ID                                 : V_MPEG4/ISO/AVC
      O* I) V# J' _# o( d( `
  10. Duration                                 : 1 h 52 min, z" L% a( M, g
  11. Bit rate                                 : 7 695 kb/s1 J7 M, w* k# c  l# ]! ^
  12. Width                                    : 1 200 pixels- c9 y7 O- \8 h, ^6 H! E* _3 z6 j
  13. Height                                   : 720 pixels. ~" |( d5 n; O  R. j+ b
  14. Display aspect ratio                     : 5:3
    . X6 v7 j% j/ }/ X* @
  15. Frame rate mode                          : Constant
    ' H% I/ R' Q- m1 @& S' x
  16. Frame rate                               : 23.976 (24000/1001) FPS, U% A: U; y& L) Z6 }( p
  17. Color space                              : YUV  M4 A) R# r* Q* k: v/ i: t
  18. Chroma subsampling                       : 4:2:03 y6 n5 `* f2 t' N2 Z2 q& y
  19. Bit depth                                : 8 bits. v" W9 j+ C: I, g
  20. Scan type                                : Progressive9 P6 y$ c4 L! P6 B
  21. Bits/(Pixel*Frame)                       : 0.371& f3 }5 J5 j" R8 S! Y4 N( J
  22. Stream size                              : 6.04 GiB (92%)
    ) W, g9 |. X% N- j/ z4 Q( d
  23. Writing library                          : x264 core 157 r2969 d4099dd) J' u) O' D& E1 T$ P4 {" y/ a8 q* ]
  24. Encoding settings                        : cabac=1 / ref=5 / deblock=1:-3:-3 / analyse=0x3:0x133 / me=umh / subme=9 / psy=1 / psy_rd=1.00:0.00 / mixed_ref=1 / me_range=16 / chroma_me=1 / trellis=2 / 8x8dct=1 / cqm=0 / deadzone=21,11 / fast_pskip=0 / chroma_qp_offset=-2 / threads=18 / lookahead_threads=1 / sliced_threads=0 / nr=0 / decimate=1 / interlaced=0 / bluray_compat=0 / constrained_intra=0 / bframes=3 / b_pyramid=2 / b_adapt=1 / b_bias=0 / direct=3 / weightb=1 / open_gop=0 / weightp=2 / keyint=240 / keyint_min=24 / scenecut=40 / intra_refresh=0 / rc_lookahead=50 / rc=2pass / mbtree=1 / bitrate=7695 / ratetol=1.0 / qcomp=0.60 / qpmin=0 / qpmax=69 / qpstep=4 / cplxblur=20.0 / qblur=0.5 / ip_ratio=1.40 / aq=1:1.008 B; o% x) `( [0 a
  25. Language                                 : English
    , t0 U. B7 ^. |+ F& C' a
  26. Default                                  : Yes4 t. }+ g, [, q$ L6 ~! p6 k
  27. Forced                                   : No
    . _( L- u; R/ {' ~
  28. / R2 p3 [7 Q) c& P% P: R
  29. Audio8 h9 h# n  q4 s: F, }
  30. ID                                       : 20 w  a' r& K/ m! q  |
  31. Format                                   : FLAC# M, r" p1 p9 n* z9 f. {' d% `
  32. Format/Info                              : Free Lossless Audio Codec
    ' U- R) O9 G0 n6 Y" F/ ~
  33. Codec ID                                 : A_FLAC! K8 ~. V8 b! t% q3 A
  34. Duration                                 : 1 h 52 min
    $ o" b2 _' c- R7 \3 }: _8 t
  35. Bit rate mode                            : Variable
    * {6 w/ E0 ?. {: }) X! d% @) n1 m& |) h
  36. Bit rate                                 : 657 kb/s
    : U, }) h) f' l5 t
  37. Channel(s)                               : 1 channel0 S9 D5 d7 c2 f' O8 `5 Z$ z5 I/ ~
  38. Channel layout                           : C) E7 g2 ?: {$ P" ^8 l1 }( G
  39. Sampling rate                            : 48.0 kHz
    & X( {0 M& @: u  Q7 O% q
  40. Frame rate                               : 11.719 FPS (4096 SPF)' m9 a, B9 D9 A  t* ?3 \6 \: X
  41. Bit depth                                : 24 bits
    - C2 G$ C, ~; q% g
  42. Compression mode                         : Lossless
    . E* @/ r% ]% u
  43. Stream size                              : 528 MiB (8%)6 h- i6 s7 v9 b+ `3 Y
  44. Writing library                          : libFLAC 1.2.1 (UTC 2007-09-17)
    " F2 w0 C/ r$ P8 L: n0 p6 ^. n& p
  45. Language                                 : German5 Q0 N6 y1 t) b7 N
  46. Default                                  : Yes
    % x) P( W( \; H  J- O
  47. Forced                                   : No
    3 @8 c6 J; ^$ o# l. e

  48. 5 t% G7 B; I1 A& S: z1 T
  49. Text% A% h- J: ?- U
  50. ID                                       : 3
    - o! E6 |6 I2 ^1 s
  51. Format                                   : UTF-8
    $ A2 Q  J- O/ }4 [& O
  52. Codec ID                                 : S_TEXT/UTF80 J) J3 A! M& e* d' k+ g4 }, W
  53. Codec ID/Info                            : UTF-8 Plain Text  g  ?1 {2 t/ ~* A* F% ]3 P0 i) ^; ]
  54. Duration                                 : 1 h 49 min
    ! O+ y+ {, S5 {2 X
  55. Bit rate                                 : 33 b/s
    6 q# p" X( i6 D9 o
  56. Count of elements                        : 1009- a8 X% C$ q' r/ f& y
  57. Stream size                              : 27.0 KiB (0%)
    3 {0 `7 _% ^  \3 u5 t
  58. Title                                    : English% u; f3 n9 E6 M! w
  59. Language                                 : English  u7 _9 A5 [- h9 C! u# x& Z5 B. k
  60. Default                                  : Yes
    # o) X4 O( f2 V, C2 }
  61. Forced                                   : Yes! f7 j0 P7 Z1 r( {7 x8 ]! q

  62. $ b- h( {5 \' N7 x" s6 g
  63. Menu) p4 z. F- ~0 g% K- R9 }# c3 d2 f
  64. 00:00:00.000                             : en:00:00:00.000
    1 }- \( K* [% n; ^& ^
  65. 00:04:08.373                             : en:00:04:08.373
    # ~0 |7 V: q( k  Y- M% Q
  66. 00:08:27.006                             : en:00:08:27.006
    * j* q$ I* Q2 M& C. m' D6 G
  67. 00:17:14.492                             : en:00:17:14.492
    - d" Q4 q5 H" }7 c& H
  68. 00:21:26.619                             : en:00:21:26.6191 w  a7 {+ T: Z+ P4 u
  69. 00:28:00.554                             : en:00:28:00.554; q1 T: ]) y% x" o6 E  W
  70. 00:35:28.752                             : en:00:35:28.752
    $ y* H' o- n+ x9 d& I/ r3 X, g  Z2 N
  71. 00:38:30.266                             : en:00:38:30.266
    $ \0 D& I# R' F( Y7 P
  72. 00:43:02.371                             : en:00:43:02.371
    7 r* R( W  q3 }, @% C7 O
  73. 00:45:51.248                             : en:00:45:51.248; e; I/ ?0 s# d+ B" X  w8 }) y
  74. 00:52:25.517                             : en:00:52:25.517
    8 s0 _; ^' q4 l5 J7 K
  75. 00:55:40.003                             : en:00:55:40.003
    7 {" V  i( @( H1 P
  76. 01:05:58.830                             : en:01:05:58.830
    2 e0 C! l  }& _$ `
  77. 01:12:19.669                             : en:01:12:19.669
    3 g9 V, v7 {" \
  78. 01:18:10.811                             : en:01:18:10.8113 o9 w1 j8 t) M* ?, f5 [, Q
  79. 01:24:18.679                             : en:01:24:18.679
    , Y2 D# [# n& s9 p
  80. 01:31:52.841                             : en:01:31:52.841, ~  f  R  H1 J
  81. 01:38:12.595                             : en:01:38:12.595+ h6 D5 S* H3 P9 M
  82. 01:41:30.918                             : en:01:41:30.918- m- t" _, G6 M+ I/ g5 O
  83. 01:49:23.056                             : en:01:49:23.056
复制代码

, \8 y. k" B/ \. d+ M0 D 欧洲欧洲 Europa.Europa.1990.720p.BluRay.x264-USURY 6.56GB-2.png
- x" r8 g8 W4 f2 u; ^+ @, ^6 J% r0 y2 a# s3 E3 x8 G5 Y
2 \5 N+ r2 m1 V" |% S" z0 M7 i
: i/ q1 I, q9 `- t( }# x  V
9 z  `6 U9 x0 a* L6 t& ^, R
9 y9 R2 \0 c$ `5 D$ C( i. n# G
4 ]' o: e, e/ Z1 f" H5 ~
VIP会员免费任意下载本站所有资源!---点击开通
回复

使用道具 举报

级别:领衔主演 Lv.6

注册时间
2019-4-24
最后登录
2019-9-19
听众
13
收听
0
主题
0
蓝光币
107 枚
贡献
0 点
发表于 2019-9-11 17:00:59 | 显示全部楼层
楼主发贴辛苦了,谢谢楼主分享!我觉得中国高清电影网是注册对了!
VIP会员免费任意下载本站所有资源!---点击开通
回复

使用道具 举报

懒得打字嘛,点击右侧快捷回复 【右侧内容,后台自定义】
您需要登录后才可以回帖 登录 | 立即注册

本版积分规则

QQ|Archiver|手机版|小黑屋| 中国高清网 |网站地图

GMT+8, 2019-9-20 05:30 , Processed in 0.395133 second(s), 39 queries .

Powered by HDchina X3.4

Copyright 2017-2019©HDchina.All right reserved

返回顶部 联系我们