查看: 63|回复: 1

[剧情片] 欧洲欧洲 Europa.Europa.1990.720p.BluRay.x264-USURY 6.56GB

[复制链接]

 成长值: 4120

级别:资源管理组

注册时间
2017-10-20
最后登录
2020-2-18
听众
1
收听
0
主题
92435
蓝光币
99640 枚
贡献
16797 点
发表于 2019-9-9 21:50:23 | 显示全部楼层 |阅读模式
欧洲欧洲 Europa.Europa.1990.720p.BluRay.x264-USURY 6.56GB-1.png
: B) v- `: ?# A, u* h" E, x* z- P+ b0 p7 h# J& Z! B
译  名 欧洲欧洲 / Europa Europa / 希特勒青年队队员所罗门 / 欧罗巴,欧罗巴
4 x" n9 k' q0 y7 u! }& L片  名 Hitlerjunge Salomon1 ^- @2 T: _) O6 b: O6 v- L
年  代 19902 S' Q7 F/ f; ~: t, @" Z% G
产  地 法国 / 德国 / 波兰+ y- Q' U9 a) d. y8 Q: c: k1 @
类  别 剧情 / 历史 / 战争- _" O1 b1 S6 s8 U, ?
语  言 德语 / 波兰语 / 希伯来语 / 俄语0 N0 K# z3 R! i3 x
上映日期 1990-11-140 B( D' P7 {& D
IMDb评分  7.6/10 from 13824 users  w7 v; v/ {! f) V: F, s) t6 [
IMDb链接  http://www.imdb.com/title/tt0099776
; i1 L7 M; K/ `! v$ R豆瓣评分 7.9/10 from 925 users
8 R+ F$ Q2 }8 S) _$ O豆瓣链接 https://movie.douban.com/subject/1294557/" I* o' B( P# p" c3 f- x) ~
片  长 112 分钟" Y: n# ^2 g$ T  f$ s6 y
导  演 Agnieszka Holland
" ]$ R1 P4 z: D+ a, k& {编  剧 Agnieszka Holland
+ o; L3 O: ]) L, r8 Y主  演 Marco Hofschneider: q) y1 K4 f; ^4 w2 U( h, @/ Y
       Julie Delpy4 [& e- I. {4 P0 b3 O
       René Hofschneider
/ R( Q- B) \* W+ X8 ~$ ^, j: B- a; d       Piotr Kozlowski# v' @9 j0 H$ K" V8 |5 M3 e

4 C* `4 V$ W  c2 y3 z) h+ f
% n( ^- i8 K  R, b* d标  签 德国 | 二战 | 战争 | 波兰 | 犹太人 | 德国电影 | 法国 | AgnieszkaHolland
7 {7 w" E9 o% P# T7 ]4 V7 H0 @6 W8 \5 _& k& R7 P
简  介  
. R0 O. v6 z$ F  E7 I
0 c/ l$ N$ C! `2 _3 B  影片按照Solly Perel的实在履历改编,报告了和希特勒同一天生日的13岁德国犹太男孩Solly在二战时代经过机灵过人的应变才能和绝无唯一的偶合,保全生命,并终极与集合营中的兄长团圆的使人赞叹的故事。片中年轻的Solly是苏联共青团员,是德军的战役豪杰,是希特勒青年队的队员,甚至还爱上了一个纯雅利安女孩,但犹太人的特别标志——割礼,却无时无刻提醒着他的身份。从无所谓、苍茫到怨恨,战争让他承当了太多与年龄不相当的压力,但终极他仍然认同了自己的民族,并在成年后绝不犹豫地为自己的儿子也实行了割礼。
7 V3 ]& _/ ]  A1 d( a
+ o$ Z1 V+ n* X" l获奖情况  . `( [7 m, g6 B, G, n! ?$ d8 ]: d

! H  T& b0 U/ T# E  第64届奥斯卡金像奖(1992)
! V  i4 @$ p' a/ o3 r9 ]* F  最好改编剧本(提名) 阿格涅丝卡·霍兰
$ h+ j9 z9 H; Y& S# U1 m- E  o, g$ i/ _$ I8 {
  第46届英国电影学院奖(1993)
: w4 S! q( _) Q, M  电影奖 最好非英语片(提名) 艾特·布奥尼 / 阿格涅丝卡·霍兰 / 玛格丽特·梅内格6 H2 X8 p" |) D8 ?8 s
  1. Video
    " Y% E- _; y" S, v3 w( Q4 m
  2. ID                                       : 1
    & n7 M+ m! V( W3 }2 ^: ~6 A
  3. Format                                   : AVC) j% `' Z9 z2 W. T$ o; o" I8 A
  4. Format/Info                              : Advanced Video Codec
    2 k% V. G, i* ~6 W" P, d
  5. Format profile                           : <a href="/cdn-cgi/l/email-protection" class="__cf_email__" data-cfemail="a3ebcac4cbe3ef978d92">[email protected]</a>
    % A9 {3 ^; K' E; m
  6. Format settings                          : CABAC / 5 Ref Frames7 V7 q8 D  m' l# y' ~. E
  7. Format settings, CABAC                   : Yes1 w1 n6 H! W: x9 q  t7 e/ ^
  8. Format settings, Reference frames        : 5 frames
    % ]* X% s  G9 A6 l* _
  9. Codec ID                                 : V_MPEG4/ISO/AVC
    2 K$ x. ~& e/ `( i  D: ]+ D
  10. Duration                                 : 1 h 52 min
    / ]* B- `! v) g/ m5 b6 d
  11. Bit rate                                 : 7 695 kb/s, L' B$ N7 G. a# ]
  12. Width                                    : 1 200 pixels2 \. K) \5 K2 t4 s% ~# }( ^
  13. Height                                   : 720 pixels- a. T; H, s& W) y1 r: W) k
  14. Display aspect ratio                     : 5:3/ S3 O! u4 d, y3 A4 h8 o
  15. Frame rate mode                          : Constant# h( k; x6 `; j' {7 ?6 e
  16. Frame rate                               : 23.976 (24000/1001) FPS
    ! M* @0 i. b, C* C5 A
  17. Color space                              : YUV: z$ D$ V2 N0 z. D" Z3 w3 E" W
  18. Chroma subsampling                       : 4:2:0
    - E8 g/ _$ E  Z& u/ q/ o
  19. Bit depth                                : 8 bits" O% R0 R& Y* u0 r9 b$ O+ ?& _
  20. Scan type                                : Progressive1 n$ q- w4 q6 q1 c
  21. Bits/(Pixel*Frame)                       : 0.371
    8 Z5 Z( G, o( r, |8 \
  22. Stream size                              : 6.04 GiB (92%)) [% h1 G: u$ n6 q% @
  23. Writing library                          : x264 core 157 r2969 d4099dd
    4 i5 X8 ^% q& c# l) ^
  24. Encoding settings                        : cabac=1 / ref=5 / deblock=1:-3:-3 / analyse=0x3:0x133 / me=umh / subme=9 / psy=1 / psy_rd=1.00:0.00 / mixed_ref=1 / me_range=16 / chroma_me=1 / trellis=2 / 8x8dct=1 / cqm=0 / deadzone=21,11 / fast_pskip=0 / chroma_qp_offset=-2 / threads=18 / lookahead_threads=1 / sliced_threads=0 / nr=0 / decimate=1 / interlaced=0 / bluray_compat=0 / constrained_intra=0 / bframes=3 / b_pyramid=2 / b_adapt=1 / b_bias=0 / direct=3 / weightb=1 / open_gop=0 / weightp=2 / keyint=240 / keyint_min=24 / scenecut=40 / intra_refresh=0 / rc_lookahead=50 / rc=2pass / mbtree=1 / bitrate=7695 / ratetol=1.0 / qcomp=0.60 / qpmin=0 / qpmax=69 / qpstep=4 / cplxblur=20.0 / qblur=0.5 / ip_ratio=1.40 / aq=1:1.00
    - R- m) \; Q: V
  25. Language                                 : English# z) z) x7 a6 |( z! b" ~8 ^% w
  26. Default                                  : Yes2 K& s, W$ H5 Z
  27. Forced                                   : No6 Y# e8 V1 R) ?* O: v  T$ {( b

  28. : k" b. W7 k" D- v3 y+ k
  29. Audio
    2 H+ C/ m: ]* z7 Y  f" W
  30. ID                                       : 2- Q3 N( f1 w2 [6 b6 `- v, P6 K  F
  31. Format                                   : FLAC! V" N- q/ A/ o8 k0 L0 h4 P2 w, {6 \
  32. Format/Info                              : Free Lossless Audio Codec
    " V0 x! Z  j) i* I
  33. Codec ID                                 : A_FLAC( y: R+ [8 ~% O
  34. Duration                                 : 1 h 52 min# @4 g9 [- h2 P) j
  35. Bit rate mode                            : Variable
    1 h8 a3 V7 r: D8 c+ f$ G# |- O+ L& x) M
  36. Bit rate                                 : 657 kb/s$ y2 ?4 n$ s3 g) f3 i
  37. Channel(s)                               : 1 channel
    ( C- y  g" l; a# Z& K
  38. Channel layout                           : C0 e9 b0 T& B& f/ q0 g% m
  39. Sampling rate                            : 48.0 kHz
    % q# M7 U, _, z$ N
  40. Frame rate                               : 11.719 FPS (4096 SPF)3 {  p+ p2 Z' @+ \$ O
  41. Bit depth                                : 24 bits
    / ]  K" c9 E2 t1 g
  42. Compression mode                         : Lossless
    : w, a+ f) {- U. I! G( X# D! H1 p3 x: h6 @
  43. Stream size                              : 528 MiB (8%)
    + t/ l0 w, ]; e9 S
  44. Writing library                          : libFLAC 1.2.1 (UTC 2007-09-17)
    ( j) K5 t  z& p/ N/ S9 n& u" a
  45. Language                                 : German
    ! c/ i* d( i6 Q- T5 O  k
  46. Default                                  : Yes
    % \5 \, e, m6 Z, T5 a- c+ \
  47. Forced                                   : No" G' o* D0 m- f9 O* }& ]
  48. 9 o6 r8 n* u! h
  49. Text
    / r5 U3 `* P- o; H1 K2 Z
  50. ID                                       : 3
    & M# W6 V) @' R  K7 w9 J
  51. Format                                   : UTF-8
    # q2 P$ H4 X( O4 g
  52. Codec ID                                 : S_TEXT/UTF8
    ( Z1 |2 F/ x3 u; w) `6 d) @
  53. Codec ID/Info                            : UTF-8 Plain Text! a7 n* F3 a, \% l& V
  54. Duration                                 : 1 h 49 min: Y2 b4 }7 P; Y% P9 P1 G" Y+ T" J& l
  55. Bit rate                                 : 33 b/s* k& T, |+ O* V6 B7 N
  56. Count of elements                        : 1009, I0 g6 |- @9 `  T9 n) \
  57. Stream size                              : 27.0 KiB (0%)( k1 O% |- D* H8 P* m* e
  58. Title                                    : English
    + I% b$ V) B$ A6 {* B' U
  59. Language                                 : English
    / B2 J5 v0 D5 u5 `, _; ?% b
  60. Default                                  : Yes8 ?- L; t( z7 O; g/ e! K
  61. Forced                                   : Yes4 S+ p8 f8 Y* r4 |$ c$ @6 o
  62. # V! Z8 z4 Z* u$ I& A4 \
  63. Menu$ @! ~, H; m) p+ G5 F+ i, D
  64. 00:00:00.000                             : en:00:00:00.000
    - n* h8 r, ~8 C8 e; W
  65. 00:04:08.373                             : en:00:04:08.3731 ^6 G3 t' X$ j3 e* u
  66. 00:08:27.006                             : en:00:08:27.006
    / d9 N, F) f- p2 `8 }, O
  67. 00:17:14.492                             : en:00:17:14.492
    3 U) O. B* y1 h) U) A
  68. 00:21:26.619                             : en:00:21:26.619' v% f9 p9 e+ K8 |1 b6 e- X2 ^* `
  69. 00:28:00.554                             : en:00:28:00.554+ X$ t6 ]8 x# B" D
  70. 00:35:28.752                             : en:00:35:28.752: b: r1 r/ ^: e
  71. 00:38:30.266                             : en:00:38:30.2662 q" h$ u- i9 v/ v2 r& J' r$ T) e0 t
  72. 00:43:02.371                             : en:00:43:02.371! c' I/ ?' z, q' h3 j0 c' L
  73. 00:45:51.248                             : en:00:45:51.248
    ; ]1 K, c& H9 ^2 S! j. e& a5 W' [
  74. 00:52:25.517                             : en:00:52:25.517
    7 _$ h4 C6 F' T( {* @
  75. 00:55:40.003                             : en:00:55:40.003
    ( `2 s3 h) ]! G
  76. 01:05:58.830                             : en:01:05:58.830
    6 n$ u  j9 f5 x5 _7 _2 s7 C
  77. 01:12:19.669                             : en:01:12:19.669
    / ]4 i" G; d! m9 f6 G4 q
  78. 01:18:10.811                             : en:01:18:10.811* [/ @& u' c+ C5 T0 \4 i4 N% F+ b: d/ ^
  79. 01:24:18.679                             : en:01:24:18.679
    ) A/ g; O. j: a  S
  80. 01:31:52.841                             : en:01:31:52.841
    + W: M, c4 \  {& d* W
  81. 01:38:12.595                             : en:01:38:12.595
    6 J' v: c9 s$ |0 R8 |0 }
  82. 01:41:30.918                             : en:01:41:30.9186 E$ \) m1 b$ i* c
  83. 01:49:23.056                             : en:01:49:23.056
复制代码

3 v6 |* j4 N' p. ?% C 欧洲欧洲 Europa.Europa.1990.720p.BluRay.x264-USURY 6.56GB-2.png ; v) q$ H) {+ {+ R$ E3 n  }* _, j+ ]( @

  I' {) O0 |" }6 q7 B
" P$ j* K" d- l0 m$ z: f$ _7 h# Z- \2 @: P/ g% L
- {+ e; S, N2 }, k' J  l

+ E  a8 ]; q' f4 U9 _( `# z
( ?( v; u9 o1 l4 ?1 F5 N
VIP会员免费任意下载本站所有资源!---点击开通
回复

使用道具 举报

级别:一线明星 Lv.8

注册时间
2019-4-24
最后登录
2020-2-19
听众
14
收听
0
主题
0
蓝光币
327 枚
贡献
0 点
发表于 2019-9-11 17:00:59 | 显示全部楼层
楼主发贴辛苦了,谢谢楼主分享!我觉得中国高清电影网是注册对了!
VIP会员免费任意下载本站所有资源!---点击开通
回复

使用道具 举报

懒得打字嘛,点击右侧快捷回复 【右侧内容,后台自定义】
您需要登录后才可以回帖 登录 | 立即注册

本版积分规则

Archiver|手机版|小黑屋| 中国高清网 |网站地图

GMT+8, 2020-2-19 09:46 , Processed in 0.273723 second(s), 37 queries .

Powered by HDchina X3.4

Copyright 2017-2019©HDchina.All right reserved

返回顶部 联系我们