查看: 22|回复: 1

[喜剧片] 半斤八兩 The.Private.Eyes.1976.MANDARiN.DUBBED.720p.BluRay.x264-REGRET 4.37GB

[复制链接]

 成长值: 2560

级别:资源管理组

注册时间
2017-10-20
最后登录
2019-9-19
听众
1
收听
0
主题
82921
蓝光币
49296 枚
贡献
7249 点
发表于 2019-9-9 19:55:51 | 显示全部楼层 |阅读模式
半斤八兩 The.Private.Eyes.1976.MANDARiN.DUBBED.720p.BluRay.x264-REGRET 4.37GB-1.png * [1 r5 Z( B7 T, C: d
- J8 ]& a  ]$ ~( @* D3 e
译  名 各有千秋 / The Private Eyes$ c+ a8 y( k4 U/ h) E0 O/ c
片  名 半斤八兩
8 c+ B- F0 v( x8 U% ~6 c年  代 1976
" A' ?! T3 C( b" [' R产  地 中国香港
! k: C' R3 K! g$ S0 W. f5 c, r类  别 笑剧: h& L7 R& P6 C. e
语  言 粤语( Y0 o! ~$ h/ T+ a' k. ^
上映日期 1976-12-16(中国香港)
; `6 p; _8 f0 v' A. _IMDb评分  7.1/10 from 556 users# G& v- @+ m$ `0 m5 N, z
IMDb链接  http://www.imdb.com/title/tt0074179
* j- y  ]+ p5 A) S5 f  `( f豆瓣评分 8.2/10 from 15391 users$ k* K  c4 }* u- x& N% p& m1 [
豆瓣链接 https://movie.douban.com/subject/1448758/& x2 l& _' J  J: V' n- D
片  长 94分钟  Z0 z: @6 i1 r( K6 a  i1 m2 U
导  演 许冠文 Michael Hui
' d" }3 I2 F1 U编  剧 许冠文 Michael Hui& \) s* s) ]/ L0 W! Q3 P; n
主  演 许冠文 Michael Hui# G7 n2 B- J! |6 Z( o
       许冠杰 Samuel Hui
3 R  r5 D: \& ]9 f9 L$ Q( s+ g' u       许冠英 Ricky Hui
  K9 \6 h+ T; [. g       赵雅芝 Angie Chiu8 p) K9 v( {% I# k$ ~
       吴耀汉 Richard Ng: \6 |, C# t" ~3 V5 E# m
       卢慧芝 Wai Chi Lo* v# y: q+ W/ o  U# w, J  Q3 f5 X
       石坚 Kien Shih, F- _/ |% ]9 O; r8 [
       朱牧 Mu Zhu
( M& [4 S- q, T3 B4 m       许冠武 Stanley Hui& K6 `8 d  i, ]9 D1 D
       陈任 Joe Chan/ J8 t6 K, P4 q" ^# f
       张俊英 Chun Ying Chang5 b2 V) A# `4 c2 e3 h; N$ I: \
       黎少芳 Siu-Fong Lai5 k4 r- @3 U5 i4 {  K* N
       郑少萍 Siu Ping Cheng3 A" z4 c0 n* z2 W1 x" i! H8 d
       梁舜燕 Lily Leung
" P# t$ `5 i2 y( y; B9 O       陈剑云 Kim-Wan Chan
- S7 p2 k, N! h2 O, y5 P       高雄 Hsiung Kao
/ v) q# _3 F- T3 _- ^; W: H& z9 ~6 n       解元 Yuan Chieh0 U% M% {0 O: T6 N. X4 D, G/ _
       萧钦芳 Chin-Fang Hsiao
6 M% c4 h; @1 u2 r       曾楚霖 Choh-Lam Tsang0 U7 [2 \& S. O4 a9 Q$ x5 H! O7 Z
       黄哈 Ha Huang0 W- |' E7 i* ~
* l6 O- h" s4 E5 R
  d6 M4 [9 T2 x7 Z, b
标  签 笑剧 | 香港 | 许冠文 | 香港电影 | 许冠杰 | 许冠英 | 赵雅芝 | 19764 j: }8 ~0 E  s& b% y5 a/ H- ~

0 V0 I- @8 j9 r, e: [简  介  
0 o2 e+ c! |  f* r0 L& [0 X5 b
& |* Z  i! d$ I$ h3 r+ q+ \  万能私人侦察社是一家连同社长黄若思(许冠文)在内只要三名工作职员的小侦察社,由于买卖不咸不淡,加上黄若思为人吝啬刻薄,员工河豚(许冠英)和积琪(赵雅芝),特别前者没少遭罪。原在汽水厂上班的李国杰(许冠杰)因工作偷懒被老板解雇,一身好功夫的他来到万能求职,黄若思开初不愿招聘,随后见他简直有两把刷子,应了下来,薪水自然刻薄。. E6 U8 V7 |/ v  Y" _
  李国杰没来之前,黄若思与河豚同伴侦察的,不过一些风骚、盗窃、讹诈事务,这些案件不是每一都能侦破,而侦破的进程经常布满为难,远称不上完善,但当时香港社会的百态却一览无遗。他来以后,三人的合作亦是如此。更要命的,是他们常被警探(吴耀汉)误视作犯警份子。
) [; v& Z1 N( Y, h  几件不大不小的案子,特别八十岁老翁的娇妻(卢慧芝)在外与人(吴耀汉)偷情一案办过,李国杰显现出比黄若思更强的工作才能,更得客户喜爱。某日,黄若思与李国杰受拜托来到某家先前被劫匪威胁、现有劫匪收支的戏院,捕捉劫匪的进程中,黄若思被匪首(石坚)的几声枪响吓破胆且负伤,李国杰却凭机智将劫匪礼服并收获意外益处,两人身份一时对换。' J' r4 r+ _) z) ]
  1. Video
    - Z9 q" K2 _0 [8 M; G
  2. ID                                       : 1
    1 ~. Q9 L3 ~% E  g5 O
  3. Format                                   : AVC5 R2 v0 F  D2 Z, R8 R9 Y
  4. Format/Info                              : Advanced Video Codec
    8 [! j! ^7 a$ x. E* Y
  5. Format profile                           : <a href="/cdn-cgi/l/email-protection" class="__cf_email__" data-cfemail="3179585659717d051f00">[email protected]</a>/ f+ g' z" c) ^* `
  6. Format settings                          : CABAC / 5 Ref Frames
    " F8 f9 T: M# P
  7. Format settings, CABAC                   : Yes1 y0 l1 e3 m  `8 r. O5 C
  8. Format settings, Reference frames        : 5 frames3 P% K5 c* D7 _6 D
  9. Codec ID                                 : V_MPEG4/ISO/AVC9 n2 E6 j( ]9 R2 b7 b8 i
  10. Duration                                 : 1 h 36 min
    * ?& ?1 Q; S  K# m% v
  11. Bit rate                                 : 5 865 kb/s; B# v: P# t7 U
  12. Width                                    : 1 280 pixels
    0 l3 H% Y4 Z  H7 S* t
  13. Height                                   : 544 pixels
    5 Y% ?: ?, h/ j3 ?6 K, s4 Y0 o$ C
  14. Display aspect ratio                     : 2.35:10 |5 Z: k: S( i
  15. Frame rate mode                          : Constant
    " v- F' F+ W9 O* Z; a
  16. Frame rate                               : 23.976 (24000/1001) FPS
    $ a3 ~" P9 C- M6 `8 L
  17. Color space                              : YUV4 X  |2 z3 a4 z6 A* G1 @
  18. Chroma subsampling                       : 4:2:06 _& m& n5 ~0 q' f4 j/ T
  19. Bit depth                                : 8 bits
    ; \* U5 @$ g& i
  20. Scan type                                : Progressive* I. q/ ?- @: c( w3 ]
  21. Bits/(Pixel*Frame)                       : 0.3510 m' S+ ^# m2 C- R- W
  22. Stream size                              : 3.94 GiB (90%)  q5 g6 _( g- B: |* L+ [; U, Q. S
  23. Writing library                          : x264 core 157 r2970 5493be8. r2 y9 C. l; y
  24. Encoding settings                        : cabac=1 / ref=5 / deblock=1:-3:-3 / analyse=0x3:0x133 / me=umh / subme=9 / psy=1 / psy_rd=1.00:0.00 / mixed_ref=1 / me_range=16 / chroma_me=1 / trellis=2 / 8x8dct=1 / cqm=0 / deadzone=21,11 / fast_pskip=0 / chroma_qp_offset=-2 / threads=17 / lookahead_threads=1 / sliced_threads=0 / nr=0 / decimate=1 / interlaced=0 / bluray_compat=0 / constrained_intra=0 / bframes=3 / b_pyramid=2 / b_adapt=1 / b_bias=0 / direct=3 / weightb=1 / open_gop=0 / weightp=2 / keyint=240 / keyint_min=24 / scenecut=40 / intra_refresh=0 / rc_lookahead=50 / rc=2pass / mbtree=1 / bitrate=5865 / ratetol=1.0 / qcomp=0.60 / qpmin=0 / qpmax=69 / qpstep=4 / cplxblur=20.0 / qblur=0.5 / ip_ratio=1.40 / aq=1:1.00
    % R$ X* o  G, G' M) M
  25. Language                                 : English4 X  L" {  X- c" S! n7 o
  26. Default                                  : Yes7 [9 Q# `& ^: Z. m. I
  27. Forced                                   : No
    3 R" z- m$ s- {: E& t( }
  28. 0 m% R" r, O, s6 w  m
  29. Audio- s2 }+ s% v2 t) P4 A  J0 g
  30. ID                                       : 2; U( Q& [. a. F
  31. Format                                   : AC-3
    1 M. v% r5 B- `, Q8 b
  32. Format/Info                              : Audio Coding 3
    9 V- x$ c2 _+ U6 G' n1 o
  33. Commercial name                          : Dolby Digital- j( h9 g2 X6 R" S! d
  34. Codec ID                                 : A_AC3' v# d( `) S9 Z7 |
  35. Duration                                 : 1 h 36 min
    4 d6 P! u, x4 i9 S- O7 r! G, Q
  36. Bit rate mode                            : Constant" W; r( _$ r/ Y$ X' s& M
  37. Bit rate                                 : 640 kb/s4 P: v; U+ L, e' t
  38. Channel(s)                               : 6 channels
    . t/ g/ B/ {. M8 d5 [$ |/ W
  39. Channel layout                           : L R C LFE Ls Rs
    ' t2 d/ K/ ?/ \" e6 q9 A
  40. Sampling rate                            : 48.0 kHz
    ( T6 ?* R- s$ L
  41. Frame rate                               : 31.250 FPS (1536 SPF)
    " l3 I$ f; u2 b0 c9 F& G# Y( t/ F
  42. Bit depth                                : 16 bits7 P9 T% n  a" @) D5 H' w+ e
  43. Compression mode                         : Lossy
    : b! y* x: ]* z
  44. Stream size                              : 440 MiB (10%)
    ! K) K" k1 |0 I; X7 I. G9 L
  45. Language                                 : Chinese
    2 f) H0 ?7 D# I+ u0 a! o4 ^
  46. Service kind                             : Complete Main" }& f4 d5 Z) S4 i
  47. Default                                  : Yes
    ( R3 O$ ?" V1 S" n& F% u
  48. Forced                                   : No4 `1 A& y6 G+ X5 {3 Z5 m

  49. / b+ P* g; w" o+ q
  50. Menu! W/ R6 q& `# w$ M8 {% _% \& u
  51. 00:00:00.000                             : en:00:00:00.000
    ( ~) C' T4 o, p1 x" T# m  `
  52. 00:04:30.479                             : en:00:04:30.4797 {- d" F! ?, {" ?' x
  53. 00:09:37.452                             : en:00:09:37.452
    / ~! Z. {3 ^3 x& v. {9 |: V: B- }
  54. 00:12:51.813                             : en:00:12:51.813
    4 D" {- ]& l% z  s
  55. 00:19:35.925                             : en:00:19:35.925
    / F7 V- l4 i6 e! P# `: T
  56. 00:22:39.149                             : en:00:22:39.149
    $ `3 {: M" q2 E" _+ W3 K  w
  57. 00:28:57.653                             : en:00:28:57.653
    ) v. q; y" o, ^8 [5 _, b
  58. 00:32:37.956                             : en:00:32:37.956
    3 z' w7 X/ q$ O
  59. 00:39:38.293                             : en:00:39:38.293) J, ~. {( T* t- b5 N6 K
  60. 00:48:25.111                             : en:00:48:25.1119 G: t( K8 |; `
  61. 00:54:12.624                             : en:00:54:12.624( X5 n$ Q8 I5 }9 y. A4 c' `0 B
  62. 00:58:10.821                             : en:00:58:10.821
    ) {7 v2 B* ]9 z$ @, k
  63. 01:02:46.846                             : en:01:02:46.8469 O! h0 D3 x2 d; ?* m4 X) G
  64. 01:05:44.941                             : en:01:05:44.941
    7 P0 |' J8 B5 K7 I+ p! k
  65. 01:10:09.914                             : en:01:10:09.914
    2 o- J! a% [0 Z/ S+ e3 H7 Q
  66. 01:16:08.773                             : en:01:16:08.773( K$ T, ^  ]9 C% m  O
  67. 01:20:42.087                             : en:01:20:42.087! m% T- H! }1 Z/ I, R
  68. 01:27:10.350                             : en:01:27:10.3503 Y! L" Y1 u" @0 n0 e% D
  69. 01:30:10.238                             : en:01:30:10.238
    " }* {* m8 i$ ]3 C; h
  70. 01:33:44.619                             : en:01:33:44.619
复制代码

1 k4 Q, {. N/ l+ ^ 半斤八兩 The.Private.Eyes.1976.MANDARiN.DUBBED.720p.BluRay.x264-REGRET 4.37GB-2.png
# w+ h5 Y3 [" V+ i. [9 V
0 F% j0 A4 |# {  Y6 Z: V$ y  D) A( ~5 f

0 j0 Y& {' u' P! D0 D9 W/ t. S" _4 x! [3 K/ K* d
) d1 i$ J0 U; p4 |9 E! b
& w: {) a% K* X4 I0 b3 l- R
VIP会员免费任意下载本站所有资源!---点击开通
回复

使用道具 举报

级别:领衔主演 Lv.6

注册时间
2019-4-24
最后登录
2019-9-19
听众
13
收听
0
主题
0
蓝光币
107 枚
贡献
0 点
发表于 2019-9-11 17:06:12 | 显示全部楼层
楼主发贴辛苦了,谢谢楼主分享!我觉得中国高清电影网是注册对了!
VIP会员免费任意下载本站所有资源!---点击开通
回复

使用道具 举报

懒得打字嘛,点击右侧快捷回复 【右侧内容,后台自定义】
您需要登录后才可以回帖 登录 | 立即注册

本版积分规则

QQ|Archiver|手机版|小黑屋| 中国高清网 |网站地图

GMT+8, 2019-9-20 05:08 , Processed in 0.382028 second(s), 39 queries .

Powered by HDchina X3.4

Copyright 2017-2019©HDchina.All right reserved

返回顶部 联系我们