查看: 74|回复: 2

[喜剧片] 半斤八兩 The.Private.Eyes.1976.MANDARiN.DUBBED.720p.BluRay.x264-REGRET 4.37GB

[复制链接]

 成长值: 4120

级别:资源管理组

注册时间
2017-10-20
最后登录
2020-2-18
听众
1
收听
0
主题
92435
蓝光币
99620 枚
贡献
16797 点
发表于 2019-9-9 19:55:51 | 显示全部楼层 |阅读模式
半斤八兩 The.Private.Eyes.1976.MANDARiN.DUBBED.720p.BluRay.x264-REGRET 4.37GB-1.png
- U6 g% c$ F5 ~9 @" l4 }8 F3 i2 a, }: G: ^, d0 n) x
译  名 各有千秋 / The Private Eyes
+ X$ J+ H7 A; c9 M4 A  M* E) {3 ?片  名 半斤八兩/ v' j- d# Q6 o& K5 `+ |
年  代 1976# j! X% K! l0 R2 P# N: V
产  地 中国香港* |4 l/ r5 N' D( s# \/ ^0 B
类  别 笑剧
+ g0 L% p; U% F% r: }语  言 粤语
" o; B5 w+ J8 t5 x/ e9 {; c  |& q上映日期 1976-12-16(中国香港)
6 M3 M3 C2 b" |4 m' EIMDb评分  7.1/10 from 556 users
; a+ F0 Q& c2 ?( ]3 z/ QIMDb链接  http://www.imdb.com/title/tt0074179
& `0 F$ r# Z3 u3 U# H. J+ d, H豆瓣评分 8.2/10 from 15391 users" A9 U2 A4 ~% X
豆瓣链接 https://movie.douban.com/subject/1448758/
: d  |' g. K' ]' u片  长 94分钟
, A/ M5 |) K1 Z导  演 许冠文 Michael Hui) Y; |/ k0 h) Y# S& Y
编  剧 许冠文 Michael Hui
6 r: [+ v* H2 E主  演 许冠文 Michael Hui
& ]. \5 X  E7 X! Z+ N       许冠杰 Samuel Hui* N* w% J' i  G. t* y
       许冠英 Ricky Hui
& \2 X) |- |/ Y$ l( |! g7 M       赵雅芝 Angie Chiu
' |. X8 V2 s; \3 ~       吴耀汉 Richard Ng
; y. J7 C9 A) y) P1 C       卢慧芝 Wai Chi Lo
+ E$ c1 s; [7 c0 g# W4 @) `4 m       石坚 Kien Shih4 J  p- j4 p0 P* F! h& ]
       朱牧 Mu Zhu7 P" ]- |% k" U; k6 p5 b" w
       许冠武 Stanley Hui
8 C! n4 s. p8 Q  R       陈任 Joe Chan+ ]8 M4 [- L3 k& J2 s
       张俊英 Chun Ying Chang
( Q, D4 \  H6 a4 y0 H) `7 t7 f5 `       黎少芳 Siu-Fong Lai
/ g' M  M$ n1 `1 g; M6 ?- ~3 I       郑少萍 Siu Ping Cheng" M: s8 v  R; A) y4 b: h+ _
       梁舜燕 Lily Leung7 n4 Q: ]5 H9 n* A" Y9 d4 ^
       陈剑云 Kim-Wan Chan
9 b9 l! p/ u; J+ I       高雄 Hsiung Kao
  [  t' Y2 s+ S8 c0 U8 K! N       解元 Yuan Chieh
/ N8 v& L+ h& d4 y' S       萧钦芳 Chin-Fang Hsiao3 V- F% B4 E" T3 h" U! ?
       曾楚霖 Choh-Lam Tsang
& |/ v* x4 {0 e       黄哈 Ha Huang( i- z7 a& p, }
' |2 I# `/ [! Q

: u6 D3 c& E) M* I. |8 `& P4 n9 \标  签 笑剧 | 香港 | 许冠文 | 香港电影 | 许冠杰 | 许冠英 | 赵雅芝 | 19763 X6 l3 F( W! ?3 A

  Y' p, D1 H) l8 T0 B- o: H) j简  介  
4 z+ n3 X. J0 j8 r" @* d  P
: ?+ v& M- L: b, ~+ G1 [  万能私人侦察社是一家连同社长黄若思(许冠文)在内只要三名工作职员的小侦察社,由于买卖不咸不淡,加上黄若思为人吝啬刻薄,员工河豚(许冠英)和积琪(赵雅芝),特别前者没少遭罪。原在汽水厂上班的李国杰(许冠杰)因工作偷懒被老板解雇,一身好功夫的他来到万能求职,黄若思开初不愿招聘,随后见他简直有两把刷子,应了下来,薪水自然刻薄。6 i" J& R' l" ?% n
  李国杰没来之前,黄若思与河豚同伴侦察的,不过一些风骚、盗窃、讹诈事务,这些案件不是每一都能侦破,而侦破的进程经常布满为难,远称不上完善,但当时香港社会的百态却一览无遗。他来以后,三人的合作亦是如此。更要命的,是他们常被警探(吴耀汉)误视作犯警份子。
  N; F  \9 U% O* Z  几件不大不小的案子,特别八十岁老翁的娇妻(卢慧芝)在外与人(吴耀汉)偷情一案办过,李国杰显现出比黄若思更强的工作才能,更得客户喜爱。某日,黄若思与李国杰受拜托来到某家先前被劫匪威胁、现有劫匪收支的戏院,捕捉劫匪的进程中,黄若思被匪首(石坚)的几声枪响吓破胆且负伤,李国杰却凭机智将劫匪礼服并收获意外益处,两人身份一时对换。6 L) {" T2 O0 Y3 A
  1. Video
    2 V" k$ t6 `: ~. O
  2. ID                                       : 17 ^  I! J. B' F
  3. Format                                   : AVC1 U8 a  @3 b0 h, H+ D& X
  4. Format/Info                              : Advanced Video Codec
    9 T6 g. v1 S# O, n& H+ G
  5. Format profile                           : <a href="/cdn-cgi/l/email-protection" class="__cf_email__" data-cfemail="3179585659717d051f00">[email protected]</a>+ q% D, k1 S; a) c5 t$ |
  6. Format settings                          : CABAC / 5 Ref Frames% \6 U0 W& e& _% J: N$ J
  7. Format settings, CABAC                   : Yes) X$ o4 J/ I. g. x
  8. Format settings, Reference frames        : 5 frames
    " i# ^% ~9 r% L7 t5 j* |0 t
  9. Codec ID                                 : V_MPEG4/ISO/AVC1 J% A( b6 z2 n9 ^4 B
  10. Duration                                 : 1 h 36 min
      U1 U$ B% b- N! |
  11. Bit rate                                 : 5 865 kb/s  ]+ E4 I+ t6 z3 F  j6 u( c
  12. Width                                    : 1 280 pixels3 U8 e6 Q( |7 f- P9 {9 g  k
  13. Height                                   : 544 pixels  K. }/ ^7 X* L0 E: V4 S5 p
  14. Display aspect ratio                     : 2.35:1# D$ R! K6 H% i5 B: J
  15. Frame rate mode                          : Constant. x6 ?& Q6 ]% I
  16. Frame rate                               : 23.976 (24000/1001) FPS
    - A$ e# ?; V: M" t
  17. Color space                              : YUV0 D# i8 N) p4 x1 x) r+ ?
  18. Chroma subsampling                       : 4:2:0: ]( s( C. u3 @- m
  19. Bit depth                                : 8 bits# L5 v3 q9 e; P$ A0 }
  20. Scan type                                : Progressive( i5 l% `0 \" Q' P0 ~
  21. Bits/(Pixel*Frame)                       : 0.3515 F$ p, K+ b: e& x% B7 s
  22. Stream size                              : 3.94 GiB (90%)
    $ W1 h. J- {2 m7 b; ?3 K5 K
  23. Writing library                          : x264 core 157 r2970 5493be8( Q, o& ^6 s. g
  24. Encoding settings                        : cabac=1 / ref=5 / deblock=1:-3:-3 / analyse=0x3:0x133 / me=umh / subme=9 / psy=1 / psy_rd=1.00:0.00 / mixed_ref=1 / me_range=16 / chroma_me=1 / trellis=2 / 8x8dct=1 / cqm=0 / deadzone=21,11 / fast_pskip=0 / chroma_qp_offset=-2 / threads=17 / lookahead_threads=1 / sliced_threads=0 / nr=0 / decimate=1 / interlaced=0 / bluray_compat=0 / constrained_intra=0 / bframes=3 / b_pyramid=2 / b_adapt=1 / b_bias=0 / direct=3 / weightb=1 / open_gop=0 / weightp=2 / keyint=240 / keyint_min=24 / scenecut=40 / intra_refresh=0 / rc_lookahead=50 / rc=2pass / mbtree=1 / bitrate=5865 / ratetol=1.0 / qcomp=0.60 / qpmin=0 / qpmax=69 / qpstep=4 / cplxblur=20.0 / qblur=0.5 / ip_ratio=1.40 / aq=1:1.00
    5 c! P" z7 C3 w! l- @* A% W
  25. Language                                 : English
    / f" H8 n9 M9 }
  26. Default                                  : Yes& K  k) e  H7 d. N
  27. Forced                                   : No$ v0 j& ^2 x1 w9 b$ o; L

  28. # i2 [: V5 M3 f3 S" g# T2 S- r( _
  29. Audio
    8 Z0 I* J. H% P2 c1 x/ N" ]/ Q. `
  30. ID                                       : 2
    5 R4 P3 S# X" u. w# o' d
  31. Format                                   : AC-3
    9 S  \' Z" r1 \) j5 T/ f0 J
  32. Format/Info                              : Audio Coding 3
    / f3 ^9 P  Y4 C
  33. Commercial name                          : Dolby Digital
    5 m/ ^% G- |0 g) j2 r- L
  34. Codec ID                                 : A_AC3: C* h. t! w8 ^( u1 Q* ?0 B
  35. Duration                                 : 1 h 36 min
    * f& X, O$ i! g* E
  36. Bit rate mode                            : Constant. X3 ]8 H; o4 \) g# ]6 J  @, \
  37. Bit rate                                 : 640 kb/s
    + A1 ~( o* a1 Z' w- F
  38. Channel(s)                               : 6 channels
      P: U' Y( I5 v% H
  39. Channel layout                           : L R C LFE Ls Rs
    1 Q8 w  r2 r  |0 S
  40. Sampling rate                            : 48.0 kHz
    6 J' n7 _3 H8 D# n* @
  41. Frame rate                               : 31.250 FPS (1536 SPF)$ U; `8 |9 o& z" s, v1 k
  42. Bit depth                                : 16 bits
    $ k1 Q: b& f: Q; Y; @& d' m
  43. Compression mode                         : Lossy
    " L8 d+ H" Y8 @' n  g. e
  44. Stream size                              : 440 MiB (10%)$ q6 F% `7 p4 @3 ]" q# H
  45. Language                                 : Chinese
    8 B* \  |8 R- [7 l% \1 P% o) q
  46. Service kind                             : Complete Main9 k: e+ ~+ y/ y9 x  Z
  47. Default                                  : Yes
    * ^2 X8 F" e6 G  A+ C
  48. Forced                                   : No
    : x" u+ L& ]+ J. p
  49. * D: o1 F  C- k) `5 G- ]. k
  50. Menu1 i: T9 t! Y" Q* k/ _+ [' q
  51. 00:00:00.000                             : en:00:00:00.000
    8 H# G. W6 ?, ~4 a. N' C
  52. 00:04:30.479                             : en:00:04:30.479
      [' ^0 s  B! c: C4 j# ^+ r9 S3 C$ u7 z
  53. 00:09:37.452                             : en:00:09:37.452
    ' y7 n( D) K# B' _& L
  54. 00:12:51.813                             : en:00:12:51.8137 g( I, q& S7 M5 _, e$ ~) ^! q2 G" ]8 a
  55. 00:19:35.925                             : en:00:19:35.9253 o& `8 a- z% ]) {3 U" ^0 `( H
  56. 00:22:39.149                             : en:00:22:39.149( M" \! g) ^7 j6 e- x: ~& r- g
  57. 00:28:57.653                             : en:00:28:57.653! a' K) [! R3 {/ W) ^3 A' B
  58. 00:32:37.956                             : en:00:32:37.956
    : T7 _9 X4 W* R5 ?9 p' V
  59. 00:39:38.293                             : en:00:39:38.293
    : V/ G4 O8 \( K% T
  60. 00:48:25.111                             : en:00:48:25.111+ o+ z- ]' |4 N! ]: ^8 {* D6 b  \
  61. 00:54:12.624                             : en:00:54:12.6249 b& R' s# h0 T0 v
  62. 00:58:10.821                             : en:00:58:10.821. N  E) [: j6 m! {# U
  63. 01:02:46.846                             : en:01:02:46.846  ]4 T5 D9 R7 ]/ X; n2 U, z
  64. 01:05:44.941                             : en:01:05:44.941% e" n, m8 i" C: n* `" t4 ]
  65. 01:10:09.914                             : en:01:10:09.914  q# S& f$ V% n, E/ f( f" n
  66. 01:16:08.773                             : en:01:16:08.773! Z/ V8 o+ R/ E
  67. 01:20:42.087                             : en:01:20:42.087* q! k5 q+ {: i% q- N3 {2 i$ L
  68. 01:27:10.350                             : en:01:27:10.350& q4 U4 J/ w3 \5 a7 X* h0 z
  69. 01:30:10.238                             : en:01:30:10.2386 I/ u0 b# I) @. ~. y" y8 N
  70. 01:33:44.619                             : en:01:33:44.619
复制代码

0 _% P6 |4 P( A  [2 M 半斤八兩 The.Private.Eyes.1976.MANDARiN.DUBBED.720p.BluRay.x264-REGRET 4.37GB-2.png + d; w: W+ u& Y. _  B
: a4 V# S! V0 D# I0 r8 y

& _; y3 t7 ~- |( ~. }/ {# P
) B1 G' J9 d& K$ [! }9 Z  e6 Z
9 g& Y; q# B+ J7 ?
5 Z/ X  a# {. p( t9 P6 p. U: k4 q4 {
VIP会员免费任意下载本站所有资源!---点击开通
回复

使用道具 举报

级别:一线明星 Lv.8

注册时间
2019-4-24
最后登录
2020-2-19
听众
14
收听
0
主题
0
蓝光币
327 枚
贡献
0 点
发表于 2019-9-11 17:06:12 | 显示全部楼层
楼主发贴辛苦了,谢谢楼主分享!我觉得中国高清电影网是注册对了!
VIP会员免费任意下载本站所有资源!---点击开通
回复

使用道具 举报

级别:初级观众 Lv.1

注册时间
2019-10-11
最后登录
2019-10-13
听众
0
收听
0
主题
0
蓝光币
2 枚
贡献
0 点
发表于 2019-10-11 17:37:33 | 显示全部楼层
李国杰没来之前,黄若思与河豚搭档侦探的,无非一些风流、偷窃、欺诈事务
VIP会员免费任意下载本站所有资源!---点击开通
回复

使用道具 举报

懒得打字嘛,点击右侧快捷回复 【右侧内容,后台自定义】
您需要登录后才可以回帖 登录 | 立即注册

本版积分规则

Archiver|手机版|小黑屋| 中国高清网 |网站地图

GMT+8, 2020-2-19 09:01 , Processed in 0.351564 second(s), 37 queries .

Powered by HDchina X3.4

Copyright 2017-2019©HDchina.All right reserved

返回顶部 联系我们