查看: 61|回复: 1

[喜剧片] 与我同行 Follow.Me.1972.720p.BluRay.x264-SPOOKS 3.28GB

[复制链接]

 成长值: 4120

级别:资源管理组

注册时间
2017-10-20
最后登录
2020-2-18
听众
1
收听
0
主题
92435
蓝光币
99640 枚
贡献
16797 点
发表于 2019-9-8 20:25:47 | 显示全部楼层 |阅读模式
与我同业 Follow.Me.1972.720p.BluRay.x264-SPOOKS 3.28GB-1.png , j& C0 q' H2 M
% t6 |4 X4 u8 [
译  名 与我同业 / The Public Eye / 绿帽
4 u5 a$ q* {3 m9 L( c5 ?3 x% I片  名 Follow Me: p# O. s7 Q$ H1 h* W$ Y4 q
年  代 1972
3 p( ^+ B0 T) U0 ~产  地 英国- U% P2 _9 T& n' [1 {( _
类  别 笑剧
7 G  b) ?3 g1 t2 s9 l7 k. ?! b  a语  言 英语
' |8 S* K/ q1 C* Z+ Z* r  _上映日期 1972-07-18' j( T, `% b; ?, R. h
IMDb评分  7.2/10 from 558 users
% t5 g3 I2 g2 F7 i2 l7 l6 `IMDb链接  http://www.imdb.com/title/tt0069131* _6 Y0 @! ~+ t+ P
豆瓣评分 0/10 from 0 users
7 \) Q3 a& j. ^, V( S豆瓣链接 https://movie.douban.com/subject/1296916/$ F0 b$ K$ J7 `1 \, n7 m7 G+ [
片  长 95 分钟
: Z, k- L3 @; O5 Z9 ]导  演 卡罗尔·里德 Carol Reed$ U+ R3 K0 @8 q. P, a$ y$ b
编  剧 Peter Shaffer- k! F( C" @. p6 ?
主  演 米亚·法罗 Mia Farrow, A+ z/ {4 r9 S0 ~0 U$ w  f
       Topol
- A8 A: I) X, W: w& _" r4 a  k       Michael Jayston" E2 E* y/ w8 _( n" @

. j+ J: P* P3 r1 L9 X- M7 E. z/ A$ d' E  S
# V) r7 B2 ?( \& [* O& c标  签 Carol_Reed | 英国 | 笑剧 | 1970s | 英国电影 | 美国电影 | 电影 | 彼得谢弗
( [+ J! R) y. L% c1 s6 R$ }" d
) y) d8 u" E8 ^, B& ^% w( U. J简  介  ( {, e: R6 ^) J6 K( `1 O2 b
( x& k7 |( c. I5 G
  When a straight-laced British accountant marries a free-spirited American, he starts trying to change her. His wife doesn't keep regular hours, so he suspects an affair and hires a detective (Topol). The wife notices she is being followed, and maintaining their distance she and the detective explore London for 10 days in a game of follow-the-leader without ever exchanging a word.
7 Z( q9 S8 e* L8 q  ~- i
  1. Video
    . S% D) t" a* Y$ j- Q) H* ~
  2. ID                                       : 1
    0 w7 Y1 u! {0 G
  3. Format                                   : AVC1 O. Q' L# l# {
  4. Format/Info                              : Advanced Video Codec1 |9 S# d+ J) R9 H
  5. Format profile                           : <a href="/cdn-cgi/l/email-protection" class="__cf_email__" data-cfemail="8dc5e4eae5cdc1b9a3bc">[email protected]</a>
    % k' T$ U+ Q0 j8 O4 n3 k/ U: o
  6. Format settings                          : CABAC / 12 Ref Frames9 ^8 D0 H) K; m. l( Q
  7. Format settings, CABAC                   : Yes7 r+ _8 W+ J0 Q( b6 J4 L) i
  8. Format settings, Reference frames        : 12 frames
    + Y2 i. @0 I+ U9 K  A5 @/ D" L, E5 n
  9. Codec ID                                 : V_MPEG4/ISO/AVC
    " P  C0 X5 N- ?% N1 y3 l
  10. Duration                                 : 1 h 33 min
    0 Q* l3 O! i! M" N! L& }+ z
  11. Bit rate                                 : 4 769 kb/s- W7 h! S  }! {" E# P
  12. Width                                    : 1 280 pixels
    5 N" `1 @1 I# r' s' _
  13. Height                                   : 544 pixels9 e: x$ e! c3 h" y1 `
  14. Display aspect ratio                     : 2.35:1
    - m, T& A4 L9 Q4 g! w9 o* W
  15. Frame rate mode                          : Constant
    9 P& E4 Q8 u3 f3 a
  16. Frame rate                               : 23.976 (24000/1001) FPS3 }3 N) v" T  t
  17. Color space                              : YUV/ ]' v9 z, Y+ d5 B8 J7 M
  18. Chroma subsampling                       : 4:2:0+ Z: E0 ~1 R8 u1 w3 N% g# F) B
  19. Bit depth                                : 8 bits% X" A/ M6 n6 y
  20. Scan type                                : Progressive" T9 r- R' u  p9 x3 v% f
  21. Bits/(Pixel*Frame)                       : 0.286* Y) T5 O. H0 J6 K
  22. Stream size                              : 3.11 GiB (95%)
    0 O3 t; Q) |2 F. D5 m4 d, G
  23. Writing library                          : x264 core 158 r2984 3759fcb8 w8 y/ T7 b( N
  24. Encoding settings                        : cabac=1 / ref=12 / deblock=1:-3:-3 / analyse=0x3:0x133 / me=umh / subme=9 / psy=1 / psy_rd=1.00:0.00 / mixed_ref=1 / me_range=24 / chroma_me=1 / trellis=1 / 8x8dct=1 / cqm=0 / deadzone=21,11 / fast_pskip=0 / chroma_qp_offset=-2 / threads=17 / lookahead_threads=2 / sliced_threads=0 / nr=0 / decimate=1 / interlaced=0 / bluray_compat=0 / constrained_intra=0 / bframes=8 / b_pyramid=2 / b_adapt=2 / b_bias=0 / direct=3 / weightb=1 / open_gop=0 / weightp=2 / keyint=250 / keyint_min=23 / scenecut=40 / intra_refresh=0 / rc_lookahead=60 / rc=2pass / mbtree=1 / bitrate=4769 / ratetol=1.0 / qcomp=0.60 / qpmin=0 / qpmax=69 / qpstep=4 / cplxblur=20.0 / qblur=0.5 / vbv_maxrate=62500 / vbv_bufsize=78125 / nal_hrd=none / filler=0 / ip_ratio=1.40 / aq=1:1.00# y4 {" y% L' q: Y+ x
  25. Default                                  : Yes
    1 G* n, P4 P; i! B
  26. Forced                                   : No
    5 U8 W; {( v" Z* M4 _8 H$ C4 ?  K0 T; d
  27. ; j/ c5 G+ S/ I3 ~
  28. Audio
    - Y" `4 G0 R6 q2 i
  29. ID                                       : 2
    - b1 F7 @# k, u! |) a$ f
  30. Format                                   : FLAC2 W& T- U; C, A5 ?  J* f9 u+ \3 R! F
  31. Format/Info                              : Free Lossless Audio Codec6 J8 m& R" @# w$ ?
  32. Codec ID                                 : A_FLAC
    ' c+ p4 U0 k' @& Q& i+ ^* @) g1 ?: D6 b
  33. Duration                                 : 1 h 33 min
    5 k* L$ Y+ j: K2 v8 \% s
  34. Bit rate mode                            : Variable  t% S) u5 y" e* E1 k0 R
  35. Bit rate                                 : 255 kb/s  F5 h# C! {1 v" m9 f( ^( B2 f
  36. Channel(s)                               : 2 channels
    # z$ p2 X3 R' l8 d& x3 r
  37. Channel layout                           : L R& h7 c1 s+ `7 f, [" {
  38. Sampling rate                            : 48.0 kHz2 u& ~5 k( ?5 q3 p: A
  39. Frame rate                               : 10.417 FPS (4608 SPF)
    $ x' B) k0 }) F" c
  40. Bit depth                                : 16 bits  i7 Q6 S; {5 o- |$ b" E: W7 `9 ?
  41. Compression mode                         : Lossless
    2 ^. \) q! c2 J) A6 l
  42. Stream size                              : 170 MiB (5%), \6 i% N4 G/ n8 a% `7 f/ q0 D: x
  43. Writing library                          : Lavf58.20.100  W. X) C  B$ h: M  \  K
  44. Language                                 : English
    + W5 \+ H/ G' a1 r" {& e
  45. Default                                  : Yes6 A% K9 t  n* |
  46. Forced                                   : No! g( |8 K) h* j8 o! L5 K
  47. , M3 ^, ?3 n2 Y9 q* p; S% T
  48. Menu6 `& w6 C1 i0 E, @# O
  49. 00:00:00.000                             : en:Chapter 01
      `0 h& B; O3 I" S% c" q: Y
  50. 00:02:58.095                             : en:Chapter 02) v+ R. I; Z4 q* |. A
  51. 00:14:13.102                             : en:Chapter 03( E8 W" ]2 H; K9 O$ b
  52. 00:21:41.467                             : en:Chapter 046 ^( u% C: h% X
  53. 00:29:36.733                             : en:Chapter 05
    * N+ _5 J8 E. E- o
  54. 00:36:31.481                             : en:Chapter 06* g+ i  P  F" ~' V9 M
  55. 00:45:11.083                             : en:Chapter 074 v6 `8 g, x" d& o" v. D+ x
  56. 00:52:33.567                             : en:Chapter 08
    # @4 b5 o* u& Q/ Z+ s: i  |
  57. 00:59:07.627                             : en:Chapter 09* r$ K) D5 G3 v( X3 H7 f
  58. 01:06:10.008                             : en:Chapter 10
    1 I5 P: j) y& G
  59. 01:13:49.467                             : en:Chapter 112 F/ V3 m0 _% J! `
  60. 01:23:34.134                             : en:Chapter 12
复制代码

# p, D/ A3 G! ?' O$ o: D8 X 与我同业 Follow.Me.1972.720p.BluRay.x264-SPOOKS 3.28GB-2.png + v* e2 C! Z. M6 l% F4 N8 \
+ s& e2 j5 h5 n% t2 `( ]3 Q7 r
3 K5 y. j0 K* Z: s# X) {

+ c# q+ V* R* R( A& f+ T. @7 S
5 {  H5 o" p5 E" ]" S3 C6 Z
# m- M/ W$ N  v
4 y6 u) i, e& T0 l5 Z; x: `8 w; r
VIP会员免费任意下载本站所有资源!---点击开通
回复

使用道具 举报

级别:一线明星 Lv.8

注册时间
2019-4-24
最后登录
2020-2-19
听众
14
收听
0
主题
0
蓝光币
327 枚
贡献
0 点
发表于 2019-9-11 17:07:11 | 显示全部楼层
楼主发贴辛苦了,谢谢楼主分享!我觉得中国高清电影网是注册对了!
VIP会员免费任意下载本站所有资源!---点击开通
回复

使用道具 举报

懒得打字嘛,点击右侧快捷回复 【右侧内容,后台自定义】
您需要登录后才可以回帖 登录 | 立即注册

本版积分规则

Archiver|手机版|小黑屋| 中国高清网 |网站地图

GMT+8, 2020-2-19 09:46 , Processed in 0.271008 second(s), 37 queries .

Powered by HDchina X3.4

Copyright 2017-2019©HDchina.All right reserved

返回顶部 联系我们