查看: 18|回复: 1

[喜剧片] 与我同行 Follow.Me.1972.720p.BluRay.x264-SPOOKS 3.28GB

[复制链接]

 成长值: 2560

级别:资源管理组

注册时间
2017-10-20
最后登录
2019-9-19
听众
1
收听
0
主题
82921
蓝光币
49296 枚
贡献
7249 点
发表于 2019-9-8 20:25:47 | 显示全部楼层 |阅读模式
与我同业 Follow.Me.1972.720p.BluRay.x264-SPOOKS 3.28GB-1.png 5 w/ U5 l6 y. {0 E( K6 D6 }: t( _3 i

7 Z; T8 y5 ?4 \译  名 与我同业 / The Public Eye / 绿帽& k$ B! J3 j4 y" O/ U" i( B
片  名 Follow Me
1 C3 O+ [( I  r; E4 E7 r, k年  代 19720 X$ E2 A0 g1 E( k
产  地 英国7 t: P* v' N0 Q8 k
类  别 笑剧, @0 D( K" h$ Q1 c0 P2 h4 O
语  言 英语
' D* u$ r+ g% v3 L; T上映日期 1972-07-18* l; f: W3 f2 E3 I) Z
IMDb评分  7.2/10 from 558 users8 X  F) a% q& O
IMDb链接  http://www.imdb.com/title/tt0069131
8 G) d$ `' e# n5 |, t  R* N豆瓣评分 0/10 from 0 users
3 y, L1 c. h, U8 N& L+ ]; e豆瓣链接 https://movie.douban.com/subject/1296916/5 w7 S9 n" p/ G8 n: N
片  长 95 分钟
4 T5 n2 A, ~* a8 }/ l导  演 卡罗尔·里德 Carol Reed3 P0 l/ ~# c3 `& E  ^+ _! q
编  剧 Peter Shaffer" J/ O) K6 _2 ~8 [
主  演 米亚·法罗 Mia Farrow# f6 a6 ~. M# m- [3 v( r8 t# c
       Topol
, L5 W) D3 f5 m& D5 f0 x7 i       Michael Jayston
0 p4 G- m9 ^# g$ i' v. z0 z
9 {' s( A' F$ s1 k( v! u( P6 u2 X" l5 U# B& R
标  签 Carol_Reed | 英国 | 笑剧 | 1970s | 英国电影 | 美国电影 | 电影 | 彼得谢弗
9 k" [$ M" @: a
3 ~& X: s  j3 I3 D# L+ ^简  介  " Z/ u' I6 P* @# S5 g$ D

- S  p3 w; V4 Y' k3 u  When a straight-laced British accountant marries a free-spirited American, he starts trying to change her. His wife doesn't keep regular hours, so he suspects an affair and hires a detective (Topol). The wife notices she is being followed, and maintaining their distance she and the detective explore London for 10 days in a game of follow-the-leader without ever exchanging a word.
+ i& i9 `# Y$ {& f% |3 t' X; m
  1. Video! x6 m6 Y) l9 ^2 C6 @) e
  2. ID                                       : 1
    1 \1 v; q3 `! c. M+ K' p' e
  3. Format                                   : AVC- |0 V1 C. u. T5 K1 @
  4. Format/Info                              : Advanced Video Codec
    4 \, y/ P8 b) m
  5. Format profile                           : <a href="/cdn-cgi/l/email-protection" class="__cf_email__" data-cfemail="8dc5e4eae5cdc1b9a3bc">[email protected]</a>3 \+ Z- l- K5 W3 y" j5 ]0 K4 A( t0 n
  6. Format settings                          : CABAC / 12 Ref Frames
    ! D3 C1 P5 o! U  F1 y3 D
  7. Format settings, CABAC                   : Yes2 ]- d( [6 A' |7 D0 t
  8. Format settings, Reference frames        : 12 frames/ L, ~# s1 F" Q
  9. Codec ID                                 : V_MPEG4/ISO/AVC
    * X. W8 X2 `* Q! l
  10. Duration                                 : 1 h 33 min( s$ }3 @- ^3 g: \
  11. Bit rate                                 : 4 769 kb/s
      ~6 v  Z5 C; k* _/ E) N4 Y
  12. Width                                    : 1 280 pixels; ~% I0 ?% v& h7 J! a( R8 \
  13. Height                                   : 544 pixels
    7 ~# y; g* |. P( m9 d8 ?/ k
  14. Display aspect ratio                     : 2.35:1
    & E4 R1 n6 i9 H0 u
  15. Frame rate mode                          : Constant- N& R" c# A# U+ k5 ~( _- G( i
  16. Frame rate                               : 23.976 (24000/1001) FPS
    : a! K+ E- x; ~9 Y9 _- D" G5 o
  17. Color space                              : YUV: \3 E8 T# [# }$ Q! H2 ^1 o
  18. Chroma subsampling                       : 4:2:0! ]9 h1 t% x3 j5 _  n( o5 j5 i2 c6 Z
  19. Bit depth                                : 8 bits6 |$ r2 O" |/ b. `& c' L
  20. Scan type                                : Progressive
    - a% X  a$ S  a$ R# B; ^
  21. Bits/(Pixel*Frame)                       : 0.286
    5 ?7 a# X: k8 U
  22. Stream size                              : 3.11 GiB (95%)
    * ~5 Q# h. j9 U
  23. Writing library                          : x264 core 158 r2984 3759fcb
    6 ~' m* y* O  O9 }' W6 I4 a' v
  24. Encoding settings                        : cabac=1 / ref=12 / deblock=1:-3:-3 / analyse=0x3:0x133 / me=umh / subme=9 / psy=1 / psy_rd=1.00:0.00 / mixed_ref=1 / me_range=24 / chroma_me=1 / trellis=1 / 8x8dct=1 / cqm=0 / deadzone=21,11 / fast_pskip=0 / chroma_qp_offset=-2 / threads=17 / lookahead_threads=2 / sliced_threads=0 / nr=0 / decimate=1 / interlaced=0 / bluray_compat=0 / constrained_intra=0 / bframes=8 / b_pyramid=2 / b_adapt=2 / b_bias=0 / direct=3 / weightb=1 / open_gop=0 / weightp=2 / keyint=250 / keyint_min=23 / scenecut=40 / intra_refresh=0 / rc_lookahead=60 / rc=2pass / mbtree=1 / bitrate=4769 / ratetol=1.0 / qcomp=0.60 / qpmin=0 / qpmax=69 / qpstep=4 / cplxblur=20.0 / qblur=0.5 / vbv_maxrate=62500 / vbv_bufsize=78125 / nal_hrd=none / filler=0 / ip_ratio=1.40 / aq=1:1.005 S4 x- Y. W% T$ |. ~- i8 `
  25. Default                                  : Yes1 `7 W9 H* M0 M6 Y+ X
  26. Forced                                   : No" }/ I9 Q( X+ F  ^
  27. 9 A% j3 r4 p9 }$ W2 \
  28. Audio9 J1 i3 W. x- }
  29. ID                                       : 26 t1 I  O! o* q# m# z; S$ X- S5 s% X
  30. Format                                   : FLAC, y' e6 J2 a4 b) a1 U+ y
  31. Format/Info                              : Free Lossless Audio Codec% A( X& E% M7 I8 C
  32. Codec ID                                 : A_FLAC) m# h  N+ {' F, _
  33. Duration                                 : 1 h 33 min6 N9 ~5 Y5 Y$ Y: d( M
  34. Bit rate mode                            : Variable8 x! i2 l# p: w! H3 v) U/ j
  35. Bit rate                                 : 255 kb/s
    & e- f- \' r% `9 v7 B# W% v8 J
  36. Channel(s)                               : 2 channels: K  t8 `% a9 d! Y
  37. Channel layout                           : L R
    , \9 x  v3 G7 X/ i, G: L8 [
  38. Sampling rate                            : 48.0 kHz' @5 R7 I  g4 l% {& }
  39. Frame rate                               : 10.417 FPS (4608 SPF)
    ) i6 t9 h/ a) i1 H5 t  P
  40. Bit depth                                : 16 bits9 t- B! s; V" d, O7 E! [2 J
  41. Compression mode                         : Lossless" E2 f, s# D* ?) X+ Y# ?6 U
  42. Stream size                              : 170 MiB (5%)
    6 u) ~7 v" d  y, J+ p
  43. Writing library                          : Lavf58.20.1006 s$ {& r( j& ]' \; u& g
  44. Language                                 : English
    # g! [/ N2 Q% e5 O
  45. Default                                  : Yes
    : x, i+ F/ U# ?5 C; |- F
  46. Forced                                   : No( N5 a. U4 z) a0 ^. u+ F

  47. & t8 V# G4 K; T3 Z1 [7 y2 q
  48. Menu
    * ?! h8 c* \  ~" X% v4 C
  49. 00:00:00.000                             : en:Chapter 01
    ) H# Z. S$ V* k. k( {' a* b
  50. 00:02:58.095                             : en:Chapter 02
    ' x; L3 L/ t  {* k5 Q1 z+ B/ g: Y
  51. 00:14:13.102                             : en:Chapter 03
    / H6 W7 \+ A* I
  52. 00:21:41.467                             : en:Chapter 04
    & P, C/ z6 X6 p$ C+ C% a$ a4 o6 N4 t
  53. 00:29:36.733                             : en:Chapter 053 W% _- u" {& n+ u
  54. 00:36:31.481                             : en:Chapter 06; q& K; V6 [2 J  F: `
  55. 00:45:11.083                             : en:Chapter 07
      X4 I  Y) o8 X. }  [
  56. 00:52:33.567                             : en:Chapter 08
    4 f* Y% d, R% q5 X
  57. 00:59:07.627                             : en:Chapter 09
    . Q1 @% Q5 b4 |: ~
  58. 01:06:10.008                             : en:Chapter 10
    $ Z  H( I$ U" C. G& y6 M
  59. 01:13:49.467                             : en:Chapter 11
    5 o9 @, z" F+ P( J' E$ Q
  60. 01:23:34.134                             : en:Chapter 12
复制代码
6 k5 m# j/ f  z# l4 L8 C
与我同业 Follow.Me.1972.720p.BluRay.x264-SPOOKS 3.28GB-2.png 9 R1 D( c6 w8 K' P1 h6 E7 X

+ E: Z6 J6 W' I+ W! v4 l5 s* {% Z( F" F# w% H. c0 m) z0 ?

  v% d/ x3 Z$ N/ l; B1 F' g# N% m6 W% G% W9 L
. p2 l. I( j3 p4 s
1 \" C7 h( Y$ S! U. F8 `5 I
VIP会员免费任意下载本站所有资源!---点击开通
回复

使用道具 举报

级别:领衔主演 Lv.6

注册时间
2019-4-24
最后登录
2019-9-19
听众
13
收听
0
主题
0
蓝光币
107 枚
贡献
0 点
发表于 2019-9-11 17:07:11 | 显示全部楼层
楼主发贴辛苦了,谢谢楼主分享!我觉得中国高清电影网是注册对了!
VIP会员免费任意下载本站所有资源!---点击开通
回复

使用道具 举报

懒得打字嘛,点击右侧快捷回复 【右侧内容,后台自定义】
您需要登录后才可以回帖 登录 | 立即注册

本版积分规则

QQ|Archiver|手机版|小黑屋| 中国高清网 |网站地图

GMT+8, 2019-9-20 05:30 , Processed in 0.394622 second(s), 39 queries .

Powered by HDchina X3.4

Copyright 2017-2019©HDchina.All right reserved

返回顶部 联系我们