查看: 59|回复: 4

[动作片] 最后一步 Cold.Blood.2019.720p.BluRay.x264-SADPANDA 4.36GB

[复制链接]

 成长值: 2570

级别:资源管理组

注册时间
2017-10-20
最后登录
2019-9-21
听众
1
收听
0
主题
83009
蓝光币
49621 枚
贡献
7337 点
发表于 2019-9-8 14:27:32 | 显示全部楼层 |阅读模式
最初一步 Cold.Blood.2019.720p.BluRay.x264-SADPANDA 4.36GB-1.png 2 V* Y! m8 \3 J( n1 c1 n/ L
# M* z1 i& z& v& ?3 R  q; `
译  名 最初一步 / Cold Blood / The Last Step / 冷血遗产
: V  b, Z6 ^# {; @2 e& q3 X9 n6 e3 S8 X片  名 Cold Blood Legacy
  t6 B  R. Z9 g- r, q% j年  代 2019
" I1 L2 e/ L7 b/ e- q产  地 法国 / 英国
5 ]1 c8 P8 M# d3 }( f) N类  别 行动 / 惊悚
% J# l0 y3 `/ \; ]) M) t2 R: u4 c& w上映日期 2019-05-15(法国)
* ?; _/ F+ U" r+ ~, C& tIMDb评分  4.5/10 from 1253 users
4 D' q" h$ }9 ?* w7 ^* BIMDb链接  http://www.imdb.com/title/tt9082020! E" j$ v4 x0 s% d$ f5 y% i; Q& p
豆瓣评分 0/10 from 0 users' ^5 a& W7 {- W+ y0 a
豆瓣链接 https://movie.douban.com/subject/27182710/% E; O/ i& [4 O' p# v+ {
片  长 91分钟
% N5 H7 a9 |1 {* L  N' p* J( }8 ^导  演 Frederick Petitjean! T# e- X; T" Y: i+ a1 Y
编  剧 Frederick Petitjean9 U3 a/ I$ j4 T$ r+ Z( T4 X, _
主  演 让·雷诺 Jean Reno$ ^; P9 _  U8 Z
       莎拉·林德 Sarah Lind
# L1 j% w8 A* l1 e' y& w/ T  o+ [" @- S       汤姆·霍珀 Tom Hopper
% @, l- ~: S# ?" ^* p8 \. x+ }7 ?8 N" |; U  S

! P3 J: p0 y& X  E/ x& T" H$ }  Y标  签 让·雷诺 | 犯罪 | 行动 | 让雷诺 | 法国电影 | 惊悚 | 美国电影 | 法国
* T  A0 C/ A4 r
; [3 A& T( z* h4 P简  介  
, S9 u5 f+ O: z$ T) D9 u. p5 `; h4 n
  让·雷诺参演行动惊悚片[最初一步](The Last Step,暂译)。弗雷德里奇·佩蒂让([算命好养家])自编自导。莎拉·林德、汤姆·霍珀加盟该片。亨利(让·雷诺饰)是具有传奇色彩的杀手,他本在湖边小屋安度生活,而一个在变乱中逃生的年轻女子(莎拉·林德饰)却改变他的生活。该片将在12月开拍。
6 s/ ~! q2 ]4 j9 G- Y
  1. Video
    2 h  c3 u% W! Y. X# T
  2. ID                                       : 1
    1 L0 L" H7 P: i& W
  3. Format                                   : AVC
    5 J9 p7 n7 K  Q: P' Z1 j' g5 d
  4. Format/Info                              : Advanced Video Codec, |. I, l3 Y. b- v0 j6 @
  5. Format profile                           : <a href="/cdn-cgi/l/email-protection" class="__cf_email__" data-cfemail="622a0b050a222e564c53">[email protected]</a>* J2 l0 N6 a! J. \
  6. Format settings                          : CABAC / 5 Ref Frames
    ' e  R4 @# }( @/ J  ^- p2 i/ ?
  7. Format settings, CABAC                   : Yes7 J, [8 R3 z; K0 O# S
  8. Format settings, Reference frames        : 5 frames: `- Y7 M1 A( g1 C& l
  9. Codec ID                                 : V_MPEG4/ISO/AVC
    & Y7 ]" D3 |! l
  10. Duration                                 : 1 h 31 min
    6 @$ p* w& O7 ]3 C3 W# D
  11. Bit rate                                 : 5 328 kb/s
    7 w0 Q& [( b$ o0 P: C7 S
  12. Width                                    : 1 280 pixels
    . P6 F8 M/ y8 m( U' P
  13. Height                                   : 536 pixels2 b$ X9 _+ F: O  @( p4 a
  14. Display aspect ratio                     : 2.40:1  n# C# |0 P6 T1 ?
  15. Frame rate mode                          : Constant5 \9 |6 L% v$ P( n. f- r
  16. Frame rate                               : 23.976 (24000/1001) FPS
    : m! S# w& z/ ]) S3 d
  17. Color space                              : YUV  r* }( B# P  t
  18. Chroma subsampling                       : 4:2:0
    , B. _! R: O3 O9 _
  19. Bit depth                                : 8 bits
    6 h0 M+ Q( a; \" r* n
  20. Scan type                                : Progressive
    . s1 G  l- c) \: x& `
  21. Bits/(Pixel*Frame)                       : 0.324* u! c% `' y/ l5 l4 k8 v
  22. Stream size                              : 3.40 GiB (78%)! P$ y0 L  ^( o
  23. Writing library                          : x264 core 157 r2969 d4099dd/ U' d& I: w. l" X
  24. Encoding settings                        : cabac=1 / ref=5 / deblock=1:-3:-3 / analyse=0x3:0x113 / me=umh / subme=8 / psy=1 / psy_rd=1.00:0.25 / mixed_ref=1 / me_range=24 / chroma_me=1 / trellis=1 / 8x8dct=1 / cqm=0 / deadzone=21,11 / fast_pskip=1 / chroma_qp_offset=-4 / threads=17 / lookahead_threads=2 / sliced_threads=0 / nr=0 / decimate=1 / interlaced=0 / bluray_compat=0 / constrained_intra=0 / bframes=3 / b_pyramid=2 / b_adapt=1 / b_bias=0 / direct=3 / weightb=1 / open_gop=0 / weightp=2 / keyint=240 / keyint_min=24 / scenecut=40 / intra_refresh=0 / rc_lookahead=50 / rc=2pass / mbtree=1 / bitrate=5328 / ratetol=1.0 / qcomp=0.60 / qpmin=0 / qpmax=69 / qpstep=4 / cplxblur=20.0 / qblur=0.5 / ip_ratio=1.40 / aq=1:0.75- u' d$ i/ U7 [. g+ v: V
  25. Default                                  : Yes
    # N0 Q; A5 B- k- W- S
  26. Forced                                   : No6 K3 _0 n" |$ t/ \5 [
  27. 0 t0 @' R% @3 U9 v1 m/ A$ U0 }
  28. Audio
    8 b' N8 T( z$ z4 |  ~1 `4 O
  29. ID                                       : 2; X0 s* w7 }! L9 Q  w! R, S
  30. Format                                   : DTS. X$ E. R$ @  p' d; M
  31. Format/Info                              : Digital Theater Systems
    $ n* m+ v! x0 r, x( o
  32. Codec ID                                 : A_DTS
    % f6 S& a/ X0 q. w/ l# k
  33. Duration                                 : 1 h 31 min  Y! }4 l, o  e2 }! K- w; r! q
  34. Bit rate mode                            : Constant5 K. {& r( g  _4 C
  35. Bit rate                                 : 1 509 kb/s
    0 R1 w9 i4 W7 E, |+ a4 a4 U! B9 [' r
  36. Channel(s)                               : 6 channels6 S1 ]# x# z  A3 f( E: W
  37. Channel layout                           : C L R Ls Rs LFE
    3 I8 c2 p3 K  @% f# I
  38. Sampling rate                            : 48.0 kHz
    4 `5 I# M' p; K! n- S. p. _: q
  39. Frame rate                               : 93.750 FPS (512 SPF)) v& z' R. l- x$ V8 R
  40. Bit depth                                : 24 bits
    ; }4 }' w% e  H, h  B
  41. Compression mode                         : Lossy6 {1 ?" ?. A3 {) u0 q
  42. Stream size                              : 986 MiB (22%)( r0 Y0 g2 {  D! t+ o; m
  43. Language                                 : English- P2 b( p# s( S( \% {3 o" G
  44. Default                                  : Yes
    & r2 R& M" k& \: F/ Q
  45. Forced                                   : No& X  g7 K  S$ c# |/ L8 t
  46. 9 M: F* t- h' P$ }" ~. n
  47. Menu
    , }/ w: |, r4 ^% A2 V" v
  48. 00:00:00.000                             : en:Chapter 01
    ' ]6 j8 r8 j9 A/ y5 M' J/ ]% y
  49. 00:07:52.472                             : en:Chapter 02
    % ~! Y) l5 A6 d  [, A$ l) H) n- F2 M
  50. 00:16:37.455                             : en:Chapter 03
    6 p2 }' U6 I) j- ]/ H+ h8 N
  51. 00:24:23.253                             : en:Chapter 04
    0 S: L4 Z0 E. c  R7 z: N
  52. 00:29:15.128                             : en:Chapter 052 y  Q; T! G; Z4 k
  53. 00:40:00.106                             : en:Chapter 06
    9 ^. ^% x, B# c9 \5 C' J
  54. 00:47:09.660                             : en:Chapter 07& K7 o: b$ D! s; b* |7 H2 S* f
  55. 00:56:05.404                             : en:Chapter 08% [3 n! l) R9 J8 R0 r; \
  56. 01:06:56.262                             : en:Chapter 09% ]0 A: M8 B0 N2 n1 H3 T
  57. 01:11:38.544                             : en:Chapter 10
    ; N. e8 b" j* K, x. }4 w
  58. 01:18:31.707                             : en:Chapter 11/ J9 M3 a6 c' ?9 C. A* R! h
  59. 01:25:20.115                             : en:Chapter 12
复制代码

( }5 y8 T, u# F: @* T1 A 最初一步 Cold.Blood.2019.720p.BluRay.x264-SADPANDA 4.36GB-2.png 1 W4 G( R' k7 I" B2 _  X* A: Z5 s
& r9 C; h  g9 R" p3 w

$ l) e0 A4 w# Y& d( V; O, s; t2 q- o
5 o' E% L- T& m& p' O- t  }. ~7 n3 [' c
% p; {7 H5 n, ?1 @

6 e2 ?6 P# m( w/ X) X2 s
VIP会员免费任意下载本站所有资源!---点击开通
回复

使用道具 举报

级别:初级观众 Lv.1

注册时间
2019-9-8
最后登录
2019-9-8
听众
0
收听
0
主题
0
蓝光币
1 枚
贡献
0 点
发表于 2019-9-8 17:02:59 | 显示全部楼层

# W+ i/ Z0 d" |; `9 ^% C: y楼主太厉害了!楼主,电影应该很好看我觉得中国高清电影网真是个好地方!
VIP会员免费任意下载本站所有资源!---点击开通
回复

使用道具 举报

级别:初级观众 Lv.1

注册时间
2019-9-8
最后登录
2019-9-8
听众
0
收听
0
主题
0
蓝光币
1 枚
贡献
0 点
发表于 2019-9-8 17:03:36 | 显示全部楼层
灌水封号,不要灌水
VIP会员免费任意下载本站所有资源!---点击开通
回复

使用道具 举报

级别:荣升主角 Lv.5

注册时间
2019-2-3
最后登录
2019-9-20
听众
14
收听
0
主题
0
蓝光币
173 枚
贡献
0 点
发表于 2019-9-8 18:32:18 | 显示全部楼层
楼主发贴辛苦了,谢谢楼主分享!我觉得中国高清电影网是注册对了!
VIP会员免费任意下载本站所有资源!---点击开通
回复

使用道具 举报

级别:领衔主演 Lv.6

注册时间
2019-4-24
最后登录
2019-9-20
听众
13
收听
0
主题
0
蓝光币
111 枚
贡献
0 点
发表于 2019-9-11 17:07:45 | 显示全部楼层
楼主发贴辛苦了,谢谢楼主分享!我觉得中国高清电影网是注册对了!
VIP会员免费任意下载本站所有资源!---点击开通
回复

使用道具 举报

懒得打字嘛,点击右侧快捷回复 【右侧内容,后台自定义】
您需要登录后才可以回帖 登录 | 立即注册

本版积分规则

QQ|Archiver|手机版|小黑屋| 中国高清网 |网站地图

GMT+8, 2019-9-21 14:41 , Processed in 10.269721 second(s), 39 queries .

Powered by HDchina X3.4

Copyright 2017-2019©HDchina.All right reserved

返回顶部 联系我们