查看: 150|回复: 5

[动作片] 最后一步 Cold.Blood.2019.720p.BluRay.x264-SADPANDA 4.36GB

[复制链接]

 成长值: 4120

级别:资源管理组

注册时间
2017-10-20
最后登录
2020-2-18
听众
1
收听
0
主题
92435
蓝光币
99612 枚
贡献
16797 点
发表于 2019-9-8 14:27:32 | 显示全部楼层 |阅读模式
最初一步 Cold.Blood.2019.720p.BluRay.x264-SADPANDA 4.36GB-1.png
+ T" n4 o$ H+ P  s, q& d6 e9 E2 b( o. ?' |' B( X% `
译  名 最初一步 / Cold Blood / The Last Step / 冷血遗产
& @) z% Q4 Q9 ?! w片  名 Cold Blood Legacy
4 w' g7 ]7 |, v* S: {年  代 20191 W8 W* h! i% A( i
产  地 法国 / 英国& l& ^5 ^/ |5 s$ _8 M! W' U1 ]
类  别 行动 / 惊悚  U+ A) T4 \2 f2 D
上映日期 2019-05-15(法国)
# K# m9 V! I0 L0 aIMDb评分  4.5/10 from 1253 users
. D" |( p8 M- c0 j) ^5 KIMDb链接  http://www.imdb.com/title/tt90820202 @6 }, F  d; l; `% Q
豆瓣评分 0/10 from 0 users& E  i% \1 y- U9 l) l: T7 V4 H
豆瓣链接 https://movie.douban.com/subject/27182710/; [/ m' ]) T4 \$ L( [
片  长 91分钟
  x: k9 g* f, G0 B# T导  演 Frederick Petitjean
; r! U2 _6 G# |1 T编  剧 Frederick Petitjean4 a- g5 F3 S' p& R& n& k; V! [
主  演 让·雷诺 Jean Reno9 V' \' Z$ l8 m/ _7 }! k
       莎拉·林德 Sarah Lind
9 f7 Z. e4 z1 t  Z6 Q5 w! P       汤姆·霍珀 Tom Hopper6 V7 _0 Q+ d) f* i* |1 o. c

4 {/ i+ Q+ T1 v
) W, Q! R6 G9 z( l( e标  签 让·雷诺 | 犯罪 | 行动 | 让雷诺 | 法国电影 | 惊悚 | 美国电影 | 法国* B- R) _  H5 O
$ H! a. H0 ^9 {
简  介  - x" X( U0 z/ m, _4 J

$ k/ T6 h+ A. ?# B6 q' O6 U) E& v  让·雷诺参演行动惊悚片[最初一步](The Last Step,暂译)。弗雷德里奇·佩蒂让([算命好养家])自编自导。莎拉·林德、汤姆·霍珀加盟该片。亨利(让·雷诺饰)是具有传奇色彩的杀手,他本在湖边小屋安度生活,而一个在变乱中逃生的年轻女子(莎拉·林德饰)却改变他的生活。该片将在12月开拍。
+ l) |- H: z9 W; J! i. I
  1. Video
    , D/ {) M3 N; O6 O, z; D. _
  2. ID                                       : 1) j/ t8 o2 k( \8 h. P# _
  3. Format                                   : AVC
    : _# s$ E3 M4 ]7 h
  4. Format/Info                              : Advanced Video Codec3 `. @6 C' r* v/ R1 j
  5. Format profile                           : <a href="/cdn-cgi/l/email-protection" class="__cf_email__" data-cfemail="622a0b050a222e564c53">[email protected]</a>; Y% l/ t+ \1 X! g
  6. Format settings                          : CABAC / 5 Ref Frames
    ) _4 s5 E0 F8 O8 f  P: y# \
  7. Format settings, CABAC                   : Yes
    ; @1 w% o; V8 R3 G
  8. Format settings, Reference frames        : 5 frames
    $ e& n, |- I: [$ d* x
  9. Codec ID                                 : V_MPEG4/ISO/AVC% R6 ~/ j7 M0 y0 E
  10. Duration                                 : 1 h 31 min' h, o7 w5 D: O1 R
  11. Bit rate                                 : 5 328 kb/s
    / g' z  U% ^/ w- M- P2 \
  12. Width                                    : 1 280 pixels
    ' i" B& {8 n7 j' G* X" @
  13. Height                                   : 536 pixels
    5 z4 [* f: R; ]$ d' k+ ]- f$ f
  14. Display aspect ratio                     : 2.40:1$ U. j, k* u- _: a8 R; a. K
  15. Frame rate mode                          : Constant
    $ y; W8 m  e3 Z
  16. Frame rate                               : 23.976 (24000/1001) FPS
    9 m& c6 j- w* ^7 n  j0 C, D
  17. Color space                              : YUV( ?, t8 d; E! ?9 C: t7 @+ `1 s
  18. Chroma subsampling                       : 4:2:0! a7 i% s7 g. T5 e, A+ _: B. l
  19. Bit depth                                : 8 bits
    4 B, ~) K5 N; y
  20. Scan type                                : Progressive9 @* A! P: C  h% I1 a. w; Q2 b
  21. Bits/(Pixel*Frame)                       : 0.324
    % j( h( C* k8 @( h8 I3 @
  22. Stream size                              : 3.40 GiB (78%)
    % @* ^3 A3 k% p3 t8 W$ m
  23. Writing library                          : x264 core 157 r2969 d4099dd
    1 v2 P0 ^% s" w' X4 ]! K9 B
  24. Encoding settings                        : cabac=1 / ref=5 / deblock=1:-3:-3 / analyse=0x3:0x113 / me=umh / subme=8 / psy=1 / psy_rd=1.00:0.25 / mixed_ref=1 / me_range=24 / chroma_me=1 / trellis=1 / 8x8dct=1 / cqm=0 / deadzone=21,11 / fast_pskip=1 / chroma_qp_offset=-4 / threads=17 / lookahead_threads=2 / sliced_threads=0 / nr=0 / decimate=1 / interlaced=0 / bluray_compat=0 / constrained_intra=0 / bframes=3 / b_pyramid=2 / b_adapt=1 / b_bias=0 / direct=3 / weightb=1 / open_gop=0 / weightp=2 / keyint=240 / keyint_min=24 / scenecut=40 / intra_refresh=0 / rc_lookahead=50 / rc=2pass / mbtree=1 / bitrate=5328 / ratetol=1.0 / qcomp=0.60 / qpmin=0 / qpmax=69 / qpstep=4 / cplxblur=20.0 / qblur=0.5 / ip_ratio=1.40 / aq=1:0.75# j& {7 `+ s. f+ e% v1 ~0 {/ B
  25. Default                                  : Yes
    1 R$ b# X; s! ^1 R, E
  26. Forced                                   : No* J: y* h: X. e( k) a$ }
  27. % g# ?4 R6 i2 P
  28. Audio+ X! c4 v- R* \$ m8 I
  29. ID                                       : 2; a: @) A( V# K! @3 u" ^' d% [1 K
  30. Format                                   : DTS
    2 M% k3 a2 r( z# h8 B) h
  31. Format/Info                              : Digital Theater Systems3 R* ^5 l4 A; E/ ?/ E
  32. Codec ID                                 : A_DTS
    7 `/ Z# h5 o/ p3 ?9 m5 e0 E& h  b
  33. Duration                                 : 1 h 31 min' I" u& V; w, E; c
  34. Bit rate mode                            : Constant$ n4 r8 ~  r  w* r: q5 A+ c- B' Q
  35. Bit rate                                 : 1 509 kb/s; F' R0 h2 j. r# ?% u' n, X
  36. Channel(s)                               : 6 channels( N2 @# F' E! B/ e$ v+ K
  37. Channel layout                           : C L R Ls Rs LFE
    & l1 {' N1 o! I0 w) b  g$ B
  38. Sampling rate                            : 48.0 kHz
    ) S3 m% q% O9 K
  39. Frame rate                               : 93.750 FPS (512 SPF)
    2 T( p. S4 G$ @& w
  40. Bit depth                                : 24 bits2 y/ P+ d# ]/ t* M
  41. Compression mode                         : Lossy4 G; q  |8 [4 x
  42. Stream size                              : 986 MiB (22%)
    5 [" I- p0 A! i; V7 t6 D) {( ^
  43. Language                                 : English
    4 I3 ]& ^. x2 s' J6 S! ?* ]& ]
  44. Default                                  : Yes
    2 p9 R6 t! g4 ?# Q" ?% g
  45. Forced                                   : No
    ( S4 F) j, w/ W' l2 J
  46. , T+ E+ t9 g7 O( M; I1 \
  47. Menu
    * C' k/ T# W- n9 S8 y
  48. 00:00:00.000                             : en:Chapter 01
    . q/ {. g8 n/ H  \! F" g1 ~) U% Y
  49. 00:07:52.472                             : en:Chapter 02
    0 k% Y' Z$ o* o! C
  50. 00:16:37.455                             : en:Chapter 03( q/ v( s* Z2 ~4 ?& S
  51. 00:24:23.253                             : en:Chapter 04
    2 i5 [  p* w5 s' R# c8 r
  52. 00:29:15.128                             : en:Chapter 05
    & E+ s! p) W/ ~* R6 r" q
  53. 00:40:00.106                             : en:Chapter 06
    - Q9 Z- O3 A2 y' h5 l
  54. 00:47:09.660                             : en:Chapter 07
    8 n0 W6 _, S5 l3 o" ], F
  55. 00:56:05.404                             : en:Chapter 08' m; d- L1 ?2 M) Y# H  v
  56. 01:06:56.262                             : en:Chapter 09
    & i3 ^/ D, ?9 U3 v$ d8 ~2 X  B
  57. 01:11:38.544                             : en:Chapter 10
    $ `& e, ~" [: X3 m
  58. 01:18:31.707                             : en:Chapter 11
    . I9 p* p9 o. M4 z# H. _2 q3 P! q3 `
  59. 01:25:20.115                             : en:Chapter 12
复制代码
  \+ O$ {8 Y0 B% T5 o0 N* R
最初一步 Cold.Blood.2019.720p.BluRay.x264-SADPANDA 4.36GB-2.png 5 H3 T" _% i3 F0 _+ B' q

# F+ ^: H* Y6 @# t6 C, q
( M: t+ p, {5 v( r' @/ i* {  p/ t, X
  g/ N4 M% {; P. O- v
' |2 u! p1 q$ B  f9 g7 z% s7 Z
9 [4 w  Z  T  ~7 h# G9 a
VIP会员免费任意下载本站所有资源!---点击开通
回复

使用道具 举报

级别:初级观众 Lv.1

注册时间
2019-9-8
最后登录
2019-9-26
听众
0
收听
0
主题
0
蓝光币
1 枚
贡献
0 点
发表于 2019-9-8 17:02:59 | 显示全部楼层
2 }- {1 A4 l- _$ `% e$ U) q
楼主太厉害了!楼主,电影应该很好看我觉得中国高清电影网真是个好地方!
VIP会员免费任意下载本站所有资源!---点击开通
回复

使用道具 举报

级别:初级观众 Lv.1

注册时间
2019-9-8
最后登录
2019-9-26
听众
0
收听
0
主题
0
蓝光币
1 枚
贡献
0 点
发表于 2019-9-8 17:03:36 | 显示全部楼层
灌水封号,不要灌水
VIP会员免费任意下载本站所有资源!---点击开通
回复

使用道具 举报

级别:荣升主角 Lv.5

注册时间
2019-2-3
最后登录
2020-2-18
听众
15
收听
0
主题
0
蓝光币
271 枚
贡献
0 点
发表于 2019-9-8 18:32:18 | 显示全部楼层
楼主发贴辛苦了,谢谢楼主分享!我觉得中国高清电影网是注册对了!
VIP会员免费任意下载本站所有资源!---点击开通
回复

使用道具 举报

级别:一线明星 Lv.8

注册时间
2019-4-24
最后登录
2020-2-18
听众
14
收听
0
主题
0
蓝光币
325 枚
贡献
0 点
发表于 2019-9-11 17:07:45 | 显示全部楼层
楼主发贴辛苦了,谢谢楼主分享!我觉得中国高清电影网是注册对了!
VIP会员免费任意下载本站所有资源!---点击开通
回复

使用道具 举报

级别:普通观众 Lv.2

注册时间
2019-7-1
最后登录
2020-1-27
听众
5
收听
0
主题
0
蓝光币
14 枚
贡献
0 点
QQ
发表于 2019-10-7 12:59:48 | 显示全部楼层
楼主发贴辛苦了,谢谢楼主分享!我觉得中国高清电影网是注册对了!
VIP会员免费任意下载本站所有资源!---点击开通
回复

使用道具 举报

懒得打字嘛,点击右侧快捷回复 【右侧内容,后台自定义】
您需要登录后才可以回帖 登录 | 立即注册

本版积分规则

Archiver|手机版|小黑屋| 中国高清网 |网站地图

GMT+8, 2020-2-19 08:25 , Processed in 0.311415 second(s), 38 queries .

Powered by HDchina X3.4

Copyright 2017-2019©HDchina.All right reserved

返回顶部 联系我们