查看: 39|回复: 2

[剧情片] 化为灰烬 Into.the.Ashes.2019.720p.BluRay.x264-ROVERS 4.37GB

[复制链接]

 成长值: 2560

级别:资源管理组

注册时间
2017-10-20
最后登录
2019-9-19
听众
1
收听
0
主题
82921
蓝光币
49296 枚
贡献
7249 点
发表于 2019-9-7 01:06:16 | 显示全部楼层 |阅读模式
化为灰烬 Into.the.Ashes.2019.720p.BluRay.x264-ROVERS 4.37GB-1.png % i* F5 t* R& ^
: e( R# V! d( |9 A% C3 ]
译  名 化为灰烬 / Into the Ashes / Low Country / 付之成灰7 u0 N! n) _8 I4 Z
片  名 Into the Ashes' f) p: T1 e& |, |. Z& p
年  代 2019
, i$ }9 ?, a! I! p$ h产  地 美国
' z- a2 Z0 E! f5 ~4 p1 U类  别 剧情 / 悬疑 / 惊悚 / 犯罪
6 g1 x: U2 t' d/ q6 {3 h3 d语  言 英语
. h. p3 j+ y1 f" x$ [上映日期 2019-07-19(美国)
' p2 A3 [% K- u+ aIMDb链接  http://www.imdb.com/title/tt3138122
0 C9 S8 A1 a" B7 K! _" _3 _. j豆瓣评分 0/10 from 0 users# H6 b5 s7 J/ o/ J- @# }$ L+ F/ l: Q. O
豆瓣链接 https://movie.douban.com/subject/28618944/
8 o* ~/ g- }6 s" i( M导  演 艾伦·哈维 Aaron Harvey
- O/ n2 N& @7 @* W编  剧 艾伦·哈维 Aaron Harvey6 G4 [! M% }% s
主  演 弗兰克·格里罗 Frank Grillo! H' P1 I6 q( ?
      玛格丽特·莫罗 Marguerite Moreau- F3 p! e5 c' A  `; x  O
      罗伯特·泰勒 Robert Taylor
1 a' I# S/ u5 r3 C5 |2 y, v      詹姆斯·戴尔 James Badge Dale
. A: q- [" e8 {  _, d2 u      卢克·葛莱姆斯 Luke Grimes" f( c* Y3 U; i' p; C
      布莱德利·史姑娘 Brady Smith
) V( |5 `& j6 B( g* P      大卫·马尔登那多 David Maldonado+ P# t  y3 U4 P7 D5 g7 G0 d% C
      罗布·梅洛 Rob Mello4 i5 a/ q, d% P7 f( K( T1 j
      杰夫·波普 Jeff Pope) ~, \5 @3 ^" p# t1 B2 [% f: t+ U
      斯科特·皮特 Scott Peat9 N( ?# ^1 U( w+ u" P
      Andrea Frankle
6 e7 i/ X0 q+ h) ]/ S4 m$ V+ E: S4 m      Corey Thouviner- w8 Y7 f! C( G2 D# \8 U
      David Cade
. C( l2 }. y* p. x      Tony Scott+ ~4 K7 c& u; Y) j
      Telvin Griffin
- @, Z3 l# I( T, ~" E; `* \0 l' ~* A0 W3 S
0 H: l8 D; c. n" R- R: l4 p3 W/ H- A
标  签 犯罪 | 美国电影 | 电影 | 惊悚 | 弗兰克·格里罗 | 卢克·葛莱姆斯 | 剧情 | 1080pWEBrip-RARBG
6 t2 d# T' \; s) o0 E5 c3 m* V3 C% a1 |9 v0 \1 ^# C2 _1 B+ C: i# E
简  介  
/ P2 ~- t' I: F
; p" W8 m) s  ~( R  H8 A9 x  故事报告尼克(卢克·葛莱姆斯饰)刚刚出狱,他不能反面岳父(罗伯特·泰勒饰)缓和关系。但是他更要和一个将要损坏他生活的人(格里罗饰}打交道。
! ]2 k! C8 H$ L, k: X( g( |$ h
  1. Video) ^! P% P5 q: n6 B/ L3 n
  2. ID                                       : 16 ?* {6 L7 |* n) e8 h
  3. Format                                   : AVC4 J6 z. b3 e7 }3 d2 X6 X% `
  4. Format/Info                              : Advanced Video Codec
    % v, j1 t8 w% n- V+ d7 I
  5. Format profile                           : <a href="/cdn-cgi/l/email-protection" class="__cf_email__" data-cfemail="743c1d131c3438405a45">[email protected]</a>& C2 A# ^2 c0 ]' w& p
  6. Format settings                          : CABAC / 5 Ref Frames
    % N1 o& `7 g  _  \
  7. Format settings, CABAC                   : Yes1 t6 _) ?/ ?+ X* c
  8. Format settings, Reference frames        : 5 frames
    + D0 u" ^) B2 ~- I4 g% q" r2 |
  9. Codec ID                                 : V_MPEG4/ISO/AVC
    6 ~( R* S9 u: s* h, m1 {, ~
  10. Duration                                 : 1 h 37 min& f9 B, A' P1 `0 {# U3 B, w- y
  11. Bit rate                                 : 4 918 kb/s6 g/ W0 N- R& u! F) j  k2 o" O
  12. Width                                    : 1 280 pixels
    ! k* q3 I! L% A) |: Z
  13. Height                                   : 536 pixels
    & E- T. w6 g# v/ T$ ^' V1 Y0 K
  14. Display aspect ratio                     : 2.40:1! R9 g) ?$ v% O4 i' u: Y9 u
  15. Frame rate mode                          : Constant
    8 G5 |9 o/ Y- {& [( i0 F
  16. Frame rate                               : 23.976 (24000/1001) FPS
    - O) D- K4 }% T, t
  17. Color space                              : YUV3 V0 r  R$ a. k- F
  18. Chroma subsampling                       : 4:2:0! H' [1 v' ~: q) `' L* G7 ?" i$ P* D% ]
  19. Bit depth                                : 8 bits
    ) @9 N8 \6 {" |8 f+ x2 i3 O/ f
  20. Scan type                                : Progressive
    4 ^0 W" T+ j1 D, W! g% w" ^
  21. Bits/(Pixel*Frame)                       : 0.299
    ) H/ G2 N& r2 P9 h" z8 x- I; E
  22. Stream size                              : 3.34 GiB (76%)
    8 _- z, {4 t  K! q$ [3 l7 C1 C
  23. Writing library                          : x264 core 158 r2984 3759fcb  Q0 A7 u8 i6 z3 W
  24. Encoding settings                        : cabac=1 / ref=5 / deblock=1:-3:-3 / analyse=0x3:0x133 / me=umh / subme=8 / psy=1 / psy_rd=1.00:0.00 / mixed_ref=1 / me_range=16 / chroma_me=1 / trellis=1 / 8x8dct=1 / cqm=0 / deadzone=21,11 / fast_pskip=0 / chroma_qp_offset=-2 / threads=17 / lookahead_threads=2 / sliced_threads=0 / nr=0 / decimate=1 / interlaced=0 / bluray_compat=0 / constrained_intra=0 / bframes=3 / b_pyramid=2 / b_adapt=1 / b_bias=0 / direct=3 / weightb=1 / open_gop=0 / weightp=2 / keyint=250 / keyint_min=23 / scenecut=40 / intra_refresh=0 / rc_lookahead=50 / rc=2pass / mbtree=1 / bitrate=4918 / ratetol=1.0 / qcomp=0.60 / qpmin=0 / qpmax=69 / qpstep=4 / cplxblur=20.0 / qblur=0.5 / vbv_maxrate=62500 / vbv_bufsize=78125 / nal_hrd=none / filler=0 / ip_ratio=1.40 / aq=1:1.00
    . A5 c! A# P; |+ ^) t/ M6 G
  25. Default                                  : Yes! {* I, u4 A* [5 d. V
  26. Forced                                   : No/ `1 f  B# Z* O* q2 c

  27. 4 w5 d; ~6 \- k
  28. Audio! h' n' S% t0 I+ \
  29. ID                                       : 2  D! P8 D8 G( ~$ u  z3 \
  30. Format                                   : DTS; R) c" r* {* s
  31. Format/Info                              : Digital Theater Systems
    " h- v3 T- ~# `+ u
  32. Codec ID                                 : A_DTS' {2 F7 L; {4 d5 `& {) y( f/ E
  33. Duration                                 : 1 h 37 min8 j: D3 z! A% b2 ?
  34. Bit rate mode                            : Constant
    % K  y- U; x, I
  35. Bit rate                                 : 1 509 kb/s
    6 H# b6 ^8 N: _% q0 E
  36. Channel(s)                               : 6 channels
    : P0 w: r  f% \. {9 B
  37. Channel layout                           : C L R Ls Rs LFE
    + E6 Q" I9 B0 A
  38. Sampling rate                            : 48.0 kHz# O8 R. f5 t7 F, _$ s- ~( u* C, t
  39. Frame rate                               : 93.750 FPS (512 SPF)
    ! h  K- v" C9 K3 E3 w( C
  40. Bit depth                                : 24 bits
    # P0 X* n1 [1 w9 c' e# s
  41. Compression mode                         : Lossy5 ?) r- i9 R, @3 A2 X
  42. Stream size                              : 1.03 GiB (23%)) r$ I7 I5 V# z; A8 W: w
  43. Language                                 : English
    , ^  e4 [9 i! b* U. A
  44. Default                                  : Yes& `! f* l- V6 V
  45. Forced                                   : No; S% o' R3 X1 U

  46. * ]! H! W' F) p: Z) i8 K) X8 t
  47. Menu1 @! [7 [3 q1 i. Y
  48. 00:00:00.000                             : en:00:00:00.000
      _: E+ V! o4 a( z( y* V1 y9 F
  49. 00:11:06.749                             : en:00:11:06.7499 w$ G9 O5 x+ e# x
  50. 00:19:33.839                             : en:00:19:33.839- o8 c- S4 [8 @: N5 ?/ ^2 c
  51. 00:32:26.361                             : en:00:32:26.3612 K5 c3 y2 f. s( x1 C1 p  E
  52. 00:39:09.013                             : en:00:39:09.013
    7 K( J( x7 R. W9 [. T( q8 r* s
  53. 00:52:27.061                             : en:00:52:27.061
    3 \0 R* c3 A) y
  54. 01:04:37.165                             : en:01:04:37.165" r; w9 J, u& z  f$ T+ ~
  55. 01:33:14.506                             : en:01:33:14.506
复制代码
% J" j( P' F4 g0 h, }4 @
化为灰烬 Into.the.Ashes.2019.720p.BluRay.x264-ROVERS 4.37GB-2.png + X0 J/ n5 ^8 x" D! ]. c5 _0 E

$ ~0 W* K+ \) h
6 O* h& i: k+ Q6 n+ ]8 R+ r9 E! m5 C1 K% A

9 F) @0 z" `: r/ ^) E# m5 \7 d( {% @! T
/ E9 j1 h$ M; w9 W' m
VIP会员免费任意下载本站所有资源!---点击开通
回复

使用道具 举报

级别:荣升主角 Lv.5

注册时间
2019-2-3
最后登录
2019-9-19
听众
14
收听
0
主题
0
蓝光币
172 枚
贡献
0 点
发表于 2019-9-7 18:04:33 | 显示全部楼层
楼主发贴辛苦了,谢谢楼主分享!我觉得中国高清电影网是注册对了!
VIP会员免费任意下载本站所有资源!---点击开通
回复

使用道具 举报

级别:领衔主演 Lv.6

注册时间
2019-4-24
最后登录
2019-9-19
听众
13
收听
0
主题
0
蓝光币
107 枚
贡献
0 点
发表于 2019-9-11 17:09:58 | 显示全部楼层
楼主发贴辛苦了,谢谢楼主分享!我觉得中国高清电影网是注册对了!
VIP会员免费任意下载本站所有资源!---点击开通
回复

使用道具 举报

懒得打字嘛,点击右侧快捷回复 【右侧内容,后台自定义】
您需要登录后才可以回帖 登录 | 立即注册

本版积分规则

QQ|Archiver|手机版|小黑屋| 中国高清网 |网站地图

GMT+8, 2019-9-20 05:40 , Processed in 0.417645 second(s), 39 queries .

Powered by HDchina X3.4

Copyright 2017-2019©HDchina.All right reserved

返回顶部 联系我们