查看: 106|回复: 2

[剧情片] 化为灰烬 Into.the.Ashes.2019.720p.BluRay.x264-ROVERS 4.37GB

[复制链接]

 成长值: 4130

级别:资源管理组

注册时间
2017-10-20
最后登录
2020-2-19
听众
1
收听
0
主题
92491
蓝光币
100240 枚
贡献
16853 点
发表于 2019-9-7 01:06:16 | 显示全部楼层 |阅读模式
化为灰烬 Into.the.Ashes.2019.720p.BluRay.x264-ROVERS 4.37GB-1.png 6 Z9 h5 J3 S1 G2 H
: a+ |0 c; L8 Y! N; X
译  名 化为灰烬 / Into the Ashes / Low Country / 付之成灰
! i9 N& ]" V- b6 h5 K1 Y, X片  名 Into the Ashes* W  ~: f6 M1 s4 {$ s
年  代 20199 g- K; o0 o1 O2 u
产  地 美国% x8 y1 V& ~0 F+ A% S" U
类  别 剧情 / 悬疑 / 惊悚 / 犯罪
1 [8 T: |) ]" _. z$ d9 B; [$ I7 y语  言 英语% K# |, G" o5 a% [: r) g8 T6 d1 }8 p
上映日期 2019-07-19(美国)( h+ ~9 ^' A: t8 u  o) R8 L4 g
IMDb链接  http://www.imdb.com/title/tt3138122
3 z! g! k0 T0 `5 d" e' s" t& |豆瓣评分 0/10 from 0 users- D) Y2 R7 G, q2 L
豆瓣链接 https://movie.douban.com/subject/28618944/$ m* P9 ?' y7 f7 ]
导  演 艾伦·哈维 Aaron Harvey
1 f/ R% u- G/ w, P编  剧 艾伦·哈维 Aaron Harvey
* E8 w2 H0 P% {  L) a$ F8 O' y主  演 弗兰克·格里罗 Frank Grillo! p# G: M; s# Q$ [
      玛格丽特·莫罗 Marguerite Moreau" v( x" r1 U3 M4 q
      罗伯特·泰勒 Robert Taylor
- d' g  n" z  {: s' z- P; S      詹姆斯·戴尔 James Badge Dale0 ~6 Z- d7 }- M8 k) O
      卢克·葛莱姆斯 Luke Grimes$ T0 D  e8 y, O
      布莱德利·史姑娘 Brady Smith3 t+ b$ K+ I; c1 q  x+ |
      大卫·马尔登那多 David Maldonado# B& Y* R, z/ J( e$ |% o2 _' ?& Q
      罗布·梅洛 Rob Mello; T' J0 k  n6 z9 l
      杰夫·波普 Jeff Pope" }8 U- P. J- B9 n( t  |
      斯科特·皮特 Scott Peat
* |0 d; I0 I' y9 c: n! z  q" u# ^      Andrea Frankle4 ]1 @2 R. d1 B% s  v) ?9 K
      Corey Thouviner
/ X. o4 ~: v" ~( c' l1 j, S! m! `/ N* t      David Cade0 t! ~5 z2 D" ^5 s
      Tony Scott
6 `/ k/ j5 O4 l& y; Z      Telvin Griffin
* r* x, o) P# W) R. b* o# u/ J, p* b0 }
8 n" X9 i7 o% Q- S/ E; L
标  签 犯罪 | 美国电影 | 电影 | 惊悚 | 弗兰克·格里罗 | 卢克·葛莱姆斯 | 剧情 | 1080pWEBrip-RARBG# Y; a% M6 a' K/ S4 G$ ~# m

: e7 w% I: L* F, L: Z0 q简  介  . n* u7 X' e: h5 l0 ^

% ~7 b& B% Z/ y* Z; Y* p$ F  故事报告尼克(卢克·葛莱姆斯饰)刚刚出狱,他不能反面岳父(罗伯特·泰勒饰)缓和关系。但是他更要和一个将要损坏他生活的人(格里罗饰}打交道。2 j0 y# N% M7 B0 P
/ l7 B: m7 [* T0 e0 V
  1. Video" O7 U% W, g2 V9 z
  2. ID                                       : 1* c2 s6 d+ G5 q+ P7 J
  3. Format                                   : AVC
    4 P9 M3 m/ q2 o7 C0 n
  4. Format/Info                              : Advanced Video Codec
    " P: T" ^( J. i' ?- a
  5. Format profile                           : <a href="/cdn-cgi/l/email-protection" class="__cf_email__" data-cfemail="743c1d131c3438405a45">[email protected]</a>
    , ?! F5 q  |" @9 V
  6. Format settings                          : CABAC / 5 Ref Frames
    * w. P# e# z# x* E( i9 x
  7. Format settings, CABAC                   : Yes2 Q8 I: S) u2 v& ?7 E' x+ F" _( y
  8. Format settings, Reference frames        : 5 frames0 y7 V( j) i1 e/ A& Z! y
  9. Codec ID                                 : V_MPEG4/ISO/AVC( ?! h! M% K7 Q* l2 W* G
  10. Duration                                 : 1 h 37 min
    ; U7 r& F3 n6 o
  11. Bit rate                                 : 4 918 kb/s
    ' g. J6 `. t, X& Q
  12. Width                                    : 1 280 pixels8 f# z" K; k. `
  13. Height                                   : 536 pixels
    6 a1 ]( N, R8 s! p7 c' Q+ M
  14. Display aspect ratio                     : 2.40:1& c8 E4 c2 L8 }0 ~- @
  15. Frame rate mode                          : Constant
    0 z: N; a) r5 H% G% z1 ~
  16. Frame rate                               : 23.976 (24000/1001) FPS
    # a4 l6 B) g; c3 b7 S
  17. Color space                              : YUV
    ! W' Y6 J  J* u3 N  V( U
  18. Chroma subsampling                       : 4:2:0
    5 P- B/ o/ t9 P7 h
  19. Bit depth                                : 8 bits# u" t( H8 j& q2 s1 Z- a
  20. Scan type                                : Progressive
    ( D: f8 k  t/ p1 n
  21. Bits/(Pixel*Frame)                       : 0.299
    & ^+ h% j! y- Y  y: e
  22. Stream size                              : 3.34 GiB (76%), p; n3 x7 w, A% |
  23. Writing library                          : x264 core 158 r2984 3759fcb
    , r& j0 K" v7 e- ]+ w. g/ a
  24. Encoding settings                        : cabac=1 / ref=5 / deblock=1:-3:-3 / analyse=0x3:0x133 / me=umh / subme=8 / psy=1 / psy_rd=1.00:0.00 / mixed_ref=1 / me_range=16 / chroma_me=1 / trellis=1 / 8x8dct=1 / cqm=0 / deadzone=21,11 / fast_pskip=0 / chroma_qp_offset=-2 / threads=17 / lookahead_threads=2 / sliced_threads=0 / nr=0 / decimate=1 / interlaced=0 / bluray_compat=0 / constrained_intra=0 / bframes=3 / b_pyramid=2 / b_adapt=1 / b_bias=0 / direct=3 / weightb=1 / open_gop=0 / weightp=2 / keyint=250 / keyint_min=23 / scenecut=40 / intra_refresh=0 / rc_lookahead=50 / rc=2pass / mbtree=1 / bitrate=4918 / ratetol=1.0 / qcomp=0.60 / qpmin=0 / qpmax=69 / qpstep=4 / cplxblur=20.0 / qblur=0.5 / vbv_maxrate=62500 / vbv_bufsize=78125 / nal_hrd=none / filler=0 / ip_ratio=1.40 / aq=1:1.00
    5 d) y( n- G! b1 `! e; @
  25. Default                                  : Yes
    ( T. E1 \$ Q" y. r1 F! k% p/ u
  26. Forced                                   : No; ^; ?. k/ o. I& \$ O

  27. " k5 O5 ?! e9 z
  28. Audio
    ) c, n- h% c7 Q
  29. ID                                       : 21 v! k( r/ u9 M9 i- G5 P* m
  30. Format                                   : DTS% S" s. m) K  i1 {+ _
  31. Format/Info                              : Digital Theater Systems
    7 Q4 \  }2 I) K" N
  32. Codec ID                                 : A_DTS: A# [1 T3 W6 M5 \4 C
  33. Duration                                 : 1 h 37 min
    5 h& {. V* ?/ B# P
  34. Bit rate mode                            : Constant
    ) E1 Y+ P+ V/ {; A
  35. Bit rate                                 : 1 509 kb/s, ?9 B! Q$ v+ y, R  B$ g
  36. Channel(s)                               : 6 channels* Q: s, k7 f9 I* H2 B. o5 [
  37. Channel layout                           : C L R Ls Rs LFE
    4 w6 K# p# [: b: \8 r, i: X, G
  38. Sampling rate                            : 48.0 kHz
    7 e) s  @9 @7 c! T9 E
  39. Frame rate                               : 93.750 FPS (512 SPF)
    - l6 m! J/ j4 [' w  F. D. k! t
  40. Bit depth                                : 24 bits
    4 D" y# L3 R; h0 o. p
  41. Compression mode                         : Lossy
    - B, Q" R  p( q) j
  42. Stream size                              : 1.03 GiB (23%)+ \! |- m7 J* z2 G2 Z/ J; u
  43. Language                                 : English6 F' F3 N6 g, [! [% v: F
  44. Default                                  : Yes/ W8 n( I- i( i$ r) |/ B; c) b/ X
  45. Forced                                   : No
    7 u/ @- h# k, K8 N* g
  46. ; \" y8 {! Z3 [" [+ D  y& V9 U, x
  47. Menu1 `4 n3 R; D/ B
  48. 00:00:00.000                             : en:00:00:00.000
    3 H7 h6 ~  c/ U2 Z6 c( u6 Q( ^
  49. 00:11:06.749                             : en:00:11:06.7491 m& V2 ]) k. D% S, a
  50. 00:19:33.839                             : en:00:19:33.839, }7 S# X9 t7 }, [3 y+ i
  51. 00:32:26.361                             : en:00:32:26.361
    2 M) i! @3 V& I
  52. 00:39:09.013                             : en:00:39:09.013
    $ X: ]" ?. R: Q% Q
  53. 00:52:27.061                             : en:00:52:27.061
    / L4 D7 B) \0 ]5 g5 a& b
  54. 01:04:37.165                             : en:01:04:37.1659 P' [. |- c  c& ~1 T
  55. 01:33:14.506                             : en:01:33:14.506
复制代码
2 j- n9 u  R: z" ?' j4 l% F3 ~
化为灰烬 Into.the.Ashes.2019.720p.BluRay.x264-ROVERS 4.37GB-2.png
/ F; _0 |6 Y$ l1 r5 n4 U' S! Y: _' R
( z2 ?. ^( O# n( e7 U
# o! Y& v' \$ k
# h* c6 r0 M' U% _! ~
, M  ^: ?" ^0 W/ \. S* u
6 W7 Y) K$ ?5 _0 G9 q
3 Y* \* I. S, A$ r3 ~5 F) K; @
VIP会员免费任意下载本站所有资源!---点击开通
回复

使用道具 举报

级别:荣升主角 Lv.5

注册时间
2019-2-3
最后登录
2020-2-19
听众
15
收听
0
主题
0
蓝光币
272 枚
贡献
0 点
发表于 2019-9-7 18:04:33 | 显示全部楼层
楼主发贴辛苦了,谢谢楼主分享!我觉得中国高清电影网是注册对了!
VIP会员免费任意下载本站所有资源!---点击开通
回复

使用道具 举报

级别:一线明星 Lv.8

注册时间
2019-4-24
最后登录
2020-2-19
听众
14
收听
0
主题
0
蓝光币
327 枚
贡献
0 点
发表于 2019-9-11 17:09:58 | 显示全部楼层
楼主发贴辛苦了,谢谢楼主分享!我觉得中国高清电影网是注册对了!
VIP会员免费任意下载本站所有资源!---点击开通
回复

使用道具 举报

懒得打字嘛,点击右侧快捷回复 【右侧内容,后台自定义】
您需要登录后才可以回帖 登录 | 立即注册

本版积分规则

Archiver|手机版|小黑屋| 中国高清网 |网站地图

GMT+8, 2020-2-20 04:48 , Processed in 0.215144 second(s), 37 queries .

Powered by HDchina X3.4

Copyright 2017-2019©HDchina.All right reserved

返回顶部 联系我们